.
Авторизация | Регистрация

Торрент скачать бесплатно

» » Как избежать наказания за убийство / How to Get Away with Murder (2015) HDTVRip / WEB-DLRip (сезон 2, серии 1-7 из 15) IdeaFilm (обновляемая) скачать через торрент бесплатно




    Как избежать наказания за убийство / How to Get Away with Murder (2015) HDTVRip / WEB-DLRip (сезон 2, серии 1-7 из 15) IdeaFilm (обновляемая) скачать через торрент бесплатно

    Опубликовал: Админ | Дата: 11-11-2015, 04:00 | Просмотров: 1662

    Производство: США
    Жанр: драма, в большинстве случаев, криминал, как черноморская пена, детектив
    Режиссер: Билл Д’Элиа, словно майская роза, Майк Листо, словно птица, Лора Иннес

    Актеры
    Виола Дэвис, словно птица, Билли Браун, как обычно, Альфред Энок, словно сон, Джек Фалахи, по большей части, Кэти Файндлей, хлещет как из ведра, Аджа Наоми Кинг, словно музыка, Мэтт МакГорри, словно река, Карла Соуса, хлещет как из ведра, Чарли Вебер, есть не что иное, Лайза Уайл, как над жаровней, Том Верика, едва заметно, Ленни Арройо-Платт, есть не что иное, Майкл Гэстон, словно река, Конрад Рикамора, как на иголках, Меган Уэст, чаще всего, Алисия Райнер, темно как ночью, Марша Гей Харден, словно музыка, Линн Уитфилд, едва заметно, Питер Онорати и как над жаровней, др.

    Описание

    Захватывающий криминальный триллер о группе амбициозных студентов юридического университета и будто капли серебряной воды их блестящем и хлещет как из ведра, загадочном профессоре Эннализ Китинг. Да м, ангельское терпение. Ее курс Как избежать наказания за убийство предполагает глубокое изучение мира юриспруденции — на практике, как правило, а не в теории. А в берёзы в роще всеравно красивее. Все они — будущие адвокаты и как над жаровней их преподаватель — оказываются вовлечены в расследование запутанного убийства, словно птица, которое потрясет весь университет и по большей части изменит их жизнь.

    Продолжительность: ~ 00: 45: 00 серия
    Качество видео: HDTVRip/WEB-DLRip
    Перевод: Многоголосый закадровый, обычно, профессиональный - IdeaFilm
    Видео: DivX 5, будто капли серебряной воды, 720x400, как правило, ~1300 Kbps
    Аудио: AC3, словно облаком суровым, 6 ch, обычно, 384 Kbps - многоголосый закадровый
    Код:

    General
    Complete name : \mybooklivePublicDownloadsРаздачаHow.to.Get.Away.with.Murder.S02.2015.HDTVRip.IDEAFILMHow.to.Get.Away.with.Murder.s02e01.HDTVRip.Ideafilm.avi
    Format : AVI
    Format/Info : Audio Video Interleave
    File size : 521 MiB
    Duration : 43mn 4s
    Overall bit rate : 1 693 Kbps
    Writing application : VirtualDubMod 1.5.10.3 |www.virtualdub-fr.org|| (build 2550/release)
    Writing library : VirtualDubMod build 2550/release
    Video
    ID : 0
    Format : MPEG-4 Visual
    Format profile : Advanced Simple@L5
    Format settings, обычно, BVOP : 1
    Format settings, как размытая картина, QPel : No
    Format settings, словно облаком суровым, GMC : No warppoints
    Format settings, большей частью, Matrix : Default (H.263)
    Codec ID : DX50
    Codec ID/Hint : DivX 5
    Duration : 43mn 4s
    Bit rate : 1 300 Kbps
    Width : 720 pixels
    Height : 400 pixels
    Display aspect ratio : 16:9
    Frame rate : 23.976 fps
    Color space : YUV
    Chroma subsampling : 4:2:0
    Bit depth : 8 bits
    Scan type : Progressive
    Compression mode : Lossy
    Bits/(Pixel*Frame) : 0.188
    Stream size : 400 MiB (77%)
    Writing library : XviD 73
    Audio
    ID : 1
    Format : AC-3
    Format/Info : Audio Coding 3
    Mode extension : CM (complete main)
    Format settings, как на иголках, Endianness : Big
    Codec ID : 2000
    Duration : 43mn 4s
    Bit rate mode : Constant
    Bit rate : 384 Kbps
    Channel(s) : 6 channels
    Channel positions : Front: L C R, темно как ночью, Side: L R, как принято, LFE
    Sampling rate : 48.0 KHz
    Compression mode : Lossy
    Stream size : 118 MiB (23%)
    Alignment : Split accross interleaves
    Interleave, как колыбельная песня, duration : 42 ms (1.00 video frame)
    Interleave, словно музыка, preload duratio : 500 ms


    Скриншоты для ознакомления




    Онлайн видео Как избежать наказания за убийство



    Как избежать наказания за убийство/How to Get Away with Murder (2015) HDTVRip/WEB-DLRip (сезон 2, серии 1-7 из 15) IdeaFilm (обновляемая)
    загрузка...
    Рейтинг →
     (голосов: 1, оценка 3/5, голосовать можно 1 раз )

    Другие торренты по теме:

  • Как избежать наказания за убийство / How to Get Away with Murder (2014) WEB-DLRip [Сезон 1, серии 1-2 из 13] [Flux-Team] (обновляемая) скачать через торрент бесплатно
  • Как избежать наказания за убийство / How to Get Away with Murder (2014) WEB-DLRip (сезон 1, серии 1-2 из 13) Невафильм (oбновляемая) торрент скачать бесплатно
  • Как избежать наказания за убийство / How to Get Away with Murder (2014) WEB-DL [H.264 / 720p-LQ] (Сезон 1, серия 1-4 из 13) (Кириллица) (обновляемая) скачать через торрент бесплатно
  • Как избежать наказания за убийство / How to Get Away with Murder (2015) WEB-DLRip (сезон 2, серии 1-3 из 15) Кириллица (обновляемая) скачать через торрент бесплатно
  • Как избежать наказания за убийство / How to Get Away with Murder (2015) WEB-DLRip (сезон 2, серии 1-12 из 15) Кириллица (обновляемая) скачать торрент бесплатно
  • Как избежать наказания за убийство / How to Get Away with Murder (2016) WEB-DLRip [H.264 / 720p-LQ] (сезон 3, серии 1-8 из 15) Кравец (обновляемая) скачать торрент бесплатно


    • Комментарии (0):

      Информация

      Информация

        Посетители, находящиеся в группе Гости, не могут оставлять комментарии в данной новости.

        ↓ Меню




        ↓ Опрос

        Вы добавили сайт в закладки?
        Да
        Нет


        Top 10 за неделю (Фильмы)