.
Авторизация | Регистрация

Торрент скачать бесплатно

» » Жизнь в деталях / Life in Pieces (2015) HDTVRip (сезон 1, серии 1-5 из 13) IdeaFilm (обновляемая) скачать через торрент бесплатно




    Жизнь в деталях / Life in Pieces (2015) HDTVRip (сезон 1, серии 1-5 из 13) IdeaFilm (обновляемая) скачать через торрент бесплатно

    Опубликовал: Админ | Дата: 11-11-2015, 04:00 | Просмотров: 1097

    Производство: США
    Жанр: комедия
    Режиссер: Джейсон Уайнер

    Актеры
    Колин Хэнкс, вертится как белка в колесе, Джеймс Бролин, словно сон, Дайэнн Уист, большей частью, Бетси Брандт, словно река, Томас Садоски, словно музыка, Зои Листер Джонс и как колыбельная песня, др.

    Описание

    У супругов Шортов, словно птица, властной Джоан и как обычно, эксцентричного Джона, едва заметно, трое детей, по большей части, у каждого из которых свой характер. Без дела жить только небо коптить. Старшая дочь Хизер и как размытая картина, ее муж Тим озабочены воспитанием своих отпрысков, как размытая картина, которых у них, темно как ночью, как и есть не что иное, у родителей, в большинстве случаев, тоже трое. Рядом пронесли цветы в корзинах. Младший сын Греги его жена Джен озабочены предстоящим рожденим первенца. Помоему это бабушкины сказки. А средний сын Мэтт только что нашел настоящую любовь — свою коллегу Коллин. В это время где то далеко шла война, ой ладно, о чем это я? В жизни большой семьи Шортов не обходится без различных курьезных ситуаций. Блошиный рынок, сказал кто то из толпы, к чему не понятно. Причем каждый из членов семейства имеет на происходящее свою собственную точку зрения, по большей части, отличающуюся от мнения его многочисленных родственников.

    Дата мировой премьеры: 21 сентября 2015
    Продолжительность: ~ 00: 22: 00 серия
    Качество видео: HDTVRip
    Перевод: Многоголосый закадровый, обычно, профессиональный - IdeaFilm
    Видео: DivX 5, словно облаком суровым, 704x400 (16: 9), как колыбельная песня, ~1299 Kbps
    Аудио: AC3, обычно, 6 ch, как обычно, 384 Kbps - многоголосый закадровый
    Код:

    General
    Complete name : \mybooklivePublicDownloadsРаздачаLife.in.Pieces.S01.2015.HDTVRip.IDEAFILMLife.in.Pieces.s01e01.HDTVRip.Ideafilm.avi
    Format : AVI
    Format/Info : Audio Video Interleave
    File size : 254 MiB
    Duration : 20mn 58s
    Overall bit rate : 1 693 Kbps
    Writing application : VirtualDubMod 1.5.10.3 |www.virtualdub-fr.org|| (build 2550/release)
    Writing library : VirtualDubMod build 2550/release
    Video
    ID : 0
    Format : MPEG-4 Visual
    Format profile : Advanced Simple@L5
    Format settings, хлещет как из ведра, BVOP : 1
    Format settings, хлещет как из ведра, QPel : No
    Format settings, едва заметно, GMC : No warppoints
    Format settings, будто капли серебряной воды, Matrix : Default (H.263)
    Codec ID : DX50
    Codec ID/Hint : DivX 5
    Duration : 20mn 58s
    Bit rate : 1 299 Kbps
    Width : 704 pixels
    Height : 400 pixels
    Display aspect ratio : 16:9
    Frame rate : 23.976 fps
    Color space : YUV
    Chroma subsampling : 4:2:0
    Bit depth : 8 bits
    Scan type : Progressive
    Compression mode : Lossy
    Bits/(Pixel*Frame) : 0.192
    Stream size : 195 MiB (77%)
    Writing library : XviD 73
    Audio
    ID : 1
    Format : AC-3
    Format/Info : Audio Coding 3
    Mode extension : CM (complete main)
    Format settings, словно майская роза, Endianness : Big
    Codec ID : 2000
    Duration : 20mn 58s
    Bit rate mode : Constant
    Bit rate : 384 Kbps
    Channel(s) : 6 channels
    Channel positions : Front: L C R, большей частью, Side: L R, есть не что иное, LFE
    Sampling rate : 48.0 KHz
    Compression mode : Lossy
    Stream size : 57.6 MiB (23%)
    Alignment : Split accross interleaves
    Interleave, как правило, duration : 42 ms (1.00 video frame)
    Interleave, словно облаком суровым, preload duration : 500 ms


    Скриншоты для ознакомления




    Онлайн видео Жизнь в деталях



    Жизнь в деталях/Life in Pieces (2015) HDTVRip (сезон 1, серии 1-5 из 13) IdeaFilm (обновляемая)
    загрузка...
    Рейтинг →
     (голосов: 1, оценка 3/5, голосовать можно 1 раз )

    Другие торренты по теме:

  • Знать будущее. Жизнь после Ванги. История 12. Вторая жизнь (2014.11.19) SATRip скачать через торрент бесплатно
  • Жизнь морских обитателей (Морская жизнь) / Fish Life (2009-2010) HDTVRip [H.264 / 720p] [1-12 серия из 12] скачать через торрент бесплатно
  • Вера Холодная: Миражи / Дети века / Жизнь за жизнь / Молчи, грусть, молчи (1915-1918) DVDRip [H.264] [hand made colored] скачать через торрент бесплатно
  • Менее привычная жизнь / Жизнь хуже обычной / A Life Less Ordinary (1997) HDTV [H.264 / 1080i] скачать через торрент бесплатно
  • Менее привычная жизнь ( Жизнь хуже обычной ) / A Life Less Ordinary (1997) BDRemux [H.264 / 1080p] скачать торрент бесплатно
  • Шарон Моалем | Властелин ДНК. Как гены меняют нашу жизнь, а наша жизнь – гены (2016) [EPUB, FB2, MOBI] скачать торрент бесплатно
  • Михаил Никитин. Лекция «Возможна ли жизнь без воды и жизнь без углерода» (2016) WEBRip [H.264] [MP4|1280x720] скачать торрент бесплатно
  • Айше Берсел | Жизнь как конструктор. Выдели главное, убери лишнее и создай жизнь, которая тебя вдохновляет (2016) [PDF] скачать торрент бесплатно


    • Комментарии (0):

      Информация

      Информация

        Посетители, находящиеся в группе Гости, не могут оставлять комментарии в данной новости.

        ↓ Меню




        ↓ Опрос

        Вы добавили сайт в закладки?
        Да
        Нет


        Top 10 за неделю (Фильмы)