.
Авторизация | Регистрация
Хочешь лучшие торренты? Добавь свой email!
Добавить

Торрент скачать бесплатно

» » Последнее королевство / The Last Kingdom (2015) WEB-DL [H.264 / 720p-LQ] (сезон 1, серии 1-4 из 8) NewStudio (обновляемая) скачать через торрент бесплатно




    Последнее королевство / The Last Kingdom (2015) WEB-DL [H.264 / 720p-LQ] (сезон 1, серии 1-4 из 8) NewStudio (обновляемая) скачать через торрент бесплатно

    Опубликовал: Админ | Дата: 10-11-2015, 04:00 | Просмотров: 62

    Производство: Великобритания/Carnival Film Television
    Жанр: боевик, мелодрама, история
    Режиссер: Бен Чанан, Энтони Бирн

    Актеры
    Александр Дреймон, Николас Роу, Эмили Кокс, Дэвид Доусон, Иэн Харт, Герард Кернс, Алек Ньюман и др.

    Описание

    Сюжет рассказывает о временах правления короля Уэссекса Альфреда Великого, сумевшего отвоевать английские земли у датских викингов — заморских захватчиков. Главным героем повествования выступает ещё в младенчестве похищенный данами Утред — потомок благородного саксонского рода. Воспитанный как викинг, в очень непростой момент жизненного выбора молодой воин должен будет решить для себя, чью сторону он примет в решающих сражениях за судьбу древней Британии.

    Дата мировой премьеры: 10 октября 2015
    Продолжительность: ~01: 00: 00 серия
    Качество видео: WEB-DL 720p
    Перевод: Многоголосый закадровый, профессиональный - NewStudio
    Видео: AVC/H.264, 960x720, ~3974 Kbps
    Аудио Rus: AC3, 6 ch, 384 Kbps - многоголосый закадровый
    Аудио Eng: AC3, 6 ch, 384 Kbps - оригинал
    Код:

    General
    Unique ID : 189773137252606283931641283739099511804 (0x8EC4FA0D6F80A9508F18D21656CEBBFC)
    Complete name : \mybooklivePublicDownloadsРаздачаLast.Kingdom.s01.WEBDL.720p.NewStudio.TVThe.Last.Kingdom.s01e01.WEBDL.720p.NewStudio.TV.mkv
    Format : Matroska
    Format version : Version 4/Version 2
    File size : 2.00 GiB
    Duration : 59mn 9s
    Overall bit rate : 4 838 Kbps
    Encoded date : UTC 2015-10-11 22:27:06
    Writing application : mkvmerge v8.2.0 (\'World of Adventure\') 32bit
    Writing library : libebml v1.3.1 + libmatroska v1.4.2
    DURATION : 00:55:40.820000000
    NUMBER_OF_FRAMES : 2
    NUMBER_OF_BYTES : 170
    _STATISTICS_WRITING_APP : mkvmerge v8.2.0 (\'World of Adventure\') 32bit
    _STATISTICS_WRITING_DATE_UTC : 2015-10-11 22:27:06
    _STATISTICS_TAGS : BPS DURATION NUMBER_OF_FRAMES NUMBER_OF_BYTES
    Video
    ID : 1
    Format : AVC
    Format/Info : Advanced Video Codec
    Format profile :Main@L3.1
    Format settings, CABAC : No
    Format settings, ReFrames : 2 frames
    Codec ID : V_MPEG4/ISO/AVC
    Duration : 59mn 9s
    Bit rate : 3 974 Kbps
    Width : 960 pixels
    Height : 720 pixels
    Display aspect ratio : 16:9
    Frame rate mode : Constant
    Frame rate : 25.000 fps
    Color space : YUV
    Chroma subsampling : 4:2:0
    Bit depth : 8 bits
    Scan type : Progressive
    Bits/(Pixel*Frame) : 0.230
    Stream size : 1.64 GiB (82%)
    Language : English
    Default : Yes
    Forced : No
    Color range : Limited
    Color primaries : BT.709
    Transfer characteristics : BT.709
    Matrix coefficients : BT.709
    Audio #1
    ID : 2
    Format : AC-3
    Format/Info : Audio Coding 3
    Mode extension : CM (complete main)
    Format settings, Endianness : Big
    Codec ID : A_AC3
    Duration : 59mn 9s
    Bit rate mode : Constant
    Bit rate : 384 Kbps
    Channel(s) : 6 channels
    Channel positions : Front: L C R, Side: L R, LFE
    Sampling rate : 48.0 KHz
    Compression mode : Lossy
    Stream size : 163 MiB (8%)
    Title : NewStudio.TV
    Language : Russian
    Default : Yes
    Forced : No
    Audio #2
    ID : 3
    Format : AC-3
    Format/Info : Audio Coding 3
    Mode extension : CM (complete main)
    Format settings, Endianness : Big
    Codec ID : A_AC3
    Duration : 59mn 9s
    Bit rate mode : Constant
    Bit rate : 384 Kbps
    Channel(s) : 6 channels
    Channel positions : Front: L C R, Side: L R, LFE
    Sampling rate : 48.0 KHz
    Compression mode : Lossy
    Stream size : 163 MiB (8%)
    Language : English
    Default : No
    Forced : No


    Скриншоты для ознакомления




    Онлайн видео Последнее королевство



    Последнее королевство/The Last Kingdom (2015) WEB-DL [H.264/720p-LQ] (сезон 1, серии 1-4 из 8) NewStudio (обновляемая)
    загрузка...
    Рейтинг →
     (голосов: 1, оценка 4/5, голосовать можно 1 раз )

    Другие торренты по теме:

  • Последнее королевство / The Last Kingdom (2015) WEB-DLRip (сезон 1, серии 1 из 8) NewStudio (обновляемая) скачать через торрент бесплатно
  • Последнее королевство / The Last Kingdom (2015) WEB-DLRip (сезон 1, серии 1 из 8) AlexFilm (обновляемая) скачать через торрент бесплатно
  • Последнее королевство / The Last Kingdom (2015) WEB-DLRip [H.264 / 1080p-LQ] (сезон 1, серии 1 из 8) LostFilm (обновляемая)
  • Последнее королевство / The Last Kingdom (2015) WEB-DL [H.264 / 1080p-LQ] (сезон 1, серии 1-8 из 8) NewStudio
  • Последнее королевство / The Last Kingdom (2017) HDTV [H.264 / 1080p -LQ] (сезон 2, серии 1 из 8) LostFilm (обновляемая)
  • Последнее королевство / The Last Kingdom (2017) HDTVRip (сезон 2, серии 1 из 8) LostFilm (обновляемая)


    • Комментарии (0):

      Информация

      Информация

        Посетители, находящиеся в группе Гости, не могут оставлять комментарии в данной новости.

        ↓ Меню




        ↓ Опрос

        Вы добавили сайт в закладки?
        Да
        Нет


        Top 10 за месяц (Фильмы)