.
Авторизация | Регистрация
Хочешь лучшие торренты? Добавь свой email!
Добавить

Торрент скачать бесплатно

» » Озабоченные или любовь зла (2015) SATRip (серии 1- из 24) (обновляемая) скачать через торрент бесплатно




    Озабоченные или любовь зла (2015) SATRip (серии 1- из 24) (обновляемая) скачать через торрент бесплатно

    Опубликовал: Админ | Дата: 10-11-2015, 04:00 | Просмотров: 53

    Производство: Россия/Comedy Club Production
    Жанр: комедия
    Режиссер: Борис Хлебников

    Актеры
    Мария Шалаева, Евгения Калинец, Ольга Дибцева, Юрий Колокольников, Николай Шрайбер, Иван Шмаков, Сергей Бурунов, Константин Желдин, Евгений Цыганов, Борис Каморзин, Роман Волобуев, Евгений Сытый, Елена Валюшкина, Евгений Муравич, Альбина Тиханова, Донатас Грудович и др.

    Описание

    История простой девушки из Екатеринбурга Саше Гвоздиковой. Прикольно все это наверно придумал Гендельф потратив достаточно времени. Осознав, что в жизни нужно что-то менять, Саша уезжает в Москву, бросив скучную работу и женатого любовника. Саша пишет рассказы и мечтает, чтобы их опубликовали, но переоценивает свой писательский талант. Вместе с Сашей в Москве живут две ее лучшие подруги из Екатеринбурга, Катя и Алена. Белая горячка, сказал кто то из толпы, к чему не понятно. Сюжет истории, снятой одновременно и смешно, и лирично, вертится вокруг трех героинь, которые пытаются найти себя в столичной жизни и в отношениях..

    Дата премьеры в России: 9 ноября 2015
    Продолжительность: ~ 00: 27: 00 серия
    Качество видео: SATRip
    Видео: Xvid, 720x400 (16: 9), ~1800 Кбит/с
    Аудио: MP3, 2 канала, 128 Кбит/с, CBR
    Код:

    General
    Complete name : D:Озабоченные SatRipOzabochennye.ili.ljubov.zla.01.SATRip.avi
    Format : AVI
    Format/Info : Audio Video Interleave
    File size : 372 MiB
    Duration : 26mn 50s
    Overall bit rate : 1 938 Kbps
    Writing application : VirtualDubMod 1.5.10.3 |www.virtualdub-fr.org|| (build 2550/release)
    Writing library : VirtualDubMod build 2550/release
    Video
    ID : 0
    Format : MPEG-4 Visual
    Format profile : Advanced Simple@L5
    Format settings, BVOP : 2
    Format settings, QPel : No
    Format settings, GMC : No warppoints
    Format settings, Matrix : Default (MPEG)
    Codec ID : XVID
    Codec ID/Hint : XviD
    Duration : 26mn 50s
    Bit rate : 1 800 Kbps
    Width : 720 pixels
    Height : 400 pixels
    Display aspect ratio : 16:9
    Frame rate : 25.000 fps
    Color space : YUV
    Chroma subsampling : 4:2:0
    Bit depth : 8 bits
    Scan type : Progressive
    Compression mode : Lossy
    Bits/(Pixel*Frame) : 0.250
    Stream size : 345 MiB (93%)
    Writing library : XviD 1.2.1 (UTC 2008-12-04)
    Audio
    ID : 1
    Format : MPEG Audio
    Format version : Version 1
    Format profile : Layer 3
    Mode : Joint stereo
    Mode extension : MS Stereo
    Codec ID : 55
    Codec ID/Hint : MP3
    Duration : 26mn 50s
    Bit rate mode : Constant
    Bit rate : 128 Kbps
    Channel(s) : 2 channels
    Sampling rate : 48.0 KHz
    Compression mode : Lossy
    Stream size : 24.6 MiB (7%)
    Alignment : Aligned on interleaves
    Interleave, duration : 40 ms (1.00 video frame)
    Interleave, preload duratio : 504 ms
    Writing library : LAME3.99r
    Encoding settings : -m j -V 4 -q 9 -lowpass 17 -b 128


    Скриншоты для ознакомления




    Онлайн видео Озабоченные или любовь зла (2015) SATRip (серии 1



    Озабоченные или любовь зла (2015) SATRip (серии 1- из 24) (обновляемая)
    загрузка...
    Рейтинг →
     (голосов: 1, оценка 5/5, голосовать можно 1 раз )

    Другие торренты по теме:

  • Озабоченные или любовь зла (2015) WEB-DLRip (серии 1-4 из 24) (обновляемая) скачать через торрент бесплатно
  • Озабоченные или любовь зла (2015) WEB-DLRip [H.264] (серии 1-4 из 24) (обновляемая) скачать через торрент бесплатно
  • Озабоченные или любовь зла (2015) WEB-DLRip [H.264 / 720p-LQ] (серии 1-4 из 24) (обновляемая) скачать через торрент бесплатно


    • Комментарии (0):

      Информация

      Информация

        Посетители, находящиеся в группе Гости, не могут оставлять комментарии в данной новости.

        ↓ Меню




        ↓ Опрос

        Вы добавили сайт в закладки?
        Да
        Нет


        Top 10 за месяц (Фильмы)