.
Авторизация | Регистрация
Хочешь лучшие торренты? Добавь свой email!
Добавить

Торрент скачать бесплатно

» » Высокие ставки (2015) WEB-DLRip [H.264] (1-8 серия из 24) (обновляемая) скачать через торрент бесплатно




    Высокие ставки (2015) WEB-DLRip [H.264] (1-8 серия из 24) (обновляемая) скачать через торрент бесплатно

    Опубликовал: Админ | Дата: 10-11-2015, 04:00 | Просмотров: 89

    Производство: Россия/Триикс Медиа
    Жанр: драма, криминал
    Режиссер: Богдан Дробязко

    Актеры
    Алексей Нилов, Сергей Губанов, Максим Дахненко, Валентин Кузнецов, Нина Петровская, Екатерина Рокотова, Андрей Терентьев, Олег Метелев, Роман Павлушев, Александр Дергапутский, Мария Жиганова, Екатерина Полякова, Дмитрий Гудим, Андрей Чуманов, Артем Анчуков и др.

    Описание

    В Санкт-Петербурге совершается покушение на известного криминального авторитета, владельца подпольной сети казино - Юрия Сергеева. В происходящее неожиданно вмешивается случайный прохожий, который дает киллеру отпор. Преступник убит, а прохожий, которым оказался тридцатилетний Кирилл Борзов, недавно приехавший в город из провинции, получает от Сергеева предложение работать в его службе безопасности. Так Борзов попадает в мир азарта и порока. Каждый день на глазах главного героя разыгрываются настоящие драмы из жизни игроков казино и его обслуги.

    Дата премьеры в России: 2 ноября 2015 (НТВ)
    Продолжительность: ~ 00: 46: 00 серия
    Качество видео: WEB-DLRip
    Видео: AVC/H.264, 1024x576, ~1301 Кбит/сек
    Аудио: AC3, 2 канала, 192 Кбит/сек, CBR
    Код:

    Общее
    Уникальный идентификатор : 250818583831695986136546268639894557223 (0xBCB1E6F167513583BBF3C2DC5939D227)
    Полное имя : F:Высокие ставки1 серия.mkv
    Формат : Matroska
    Версия формата : Version 2
    Размер файла : 501 Мбайт
    Продолжительность : 46 м.
    Общий поток : 1494 Кбит/сек
    Дата кодирования : UTC 2015-11-03 01:46:44
    Программа кодирования : mkvmerge v7.8.0 (\'River Man\') 32bit built on Apr 3 2015 12:11:22
    Библиотека кодирования : libebml v1.3.1 + libmatroska v1.4.2
    Видео
    Идентификатор : 1
    Формат : AVC
    Формат/Информация : Advanced Video Codec
    Профиль формата :High@L4.1
    Параметр CABAC формата : Да
    Параметр ReFrames формата : 9 кадров
    Идентификатор кодека : V_MPEG4/ISO/AVC
    Продолжительность : 46 м.
    Битрейт : 1301 Кбит/сек
    Ширина : 1024 пикселя
    Высота : 576 пикселей
    Соотношение сторон : 16:9
    Режим частоты кадров : Постоянный
    Частота кадров : 25, 000 кадров/сек
    Цветовое пространство : YUV
    Субдискретизация насыщенности : 4:2:0
    Битовая глубина : 8 бит
    Тип развёртки : Прогрессивная
    Бит/(Пиксели*Кадры) : 0.088
    Размер потока : 426 Мбайт (85%)
    Библиотека кодирования : x264 core 146 r2538 121396c
    Настройки программы : cabac=1/ref=9/deblock=1:-1:-1/analyse=0x3:0x133/me=umh/subme=9/psy=1/psy_rd=1.00:0.00/mixed_ref=0/me_range=32/chroma_me=1/trellis=2/8x8dct=1/cqm=0/deadzone=21, 11/fast_pskip=1/chroma_qp_offset=-2/threads=2/lookahead_threads=4/sliced_threads=0/nr=0/decimate=1/interlaced=0/bluray_compat=0/constrained_intra=0/bframes=9/b_pyramid=2/b_adapt=1/b_bias=0/direct=3/weightb=1/open_gop=0/weightp=2/keyint=250/keyint_min=25/scenecut=40/intra_refresh=0/rc_lookahead=40/rc=2pass/mbtree=1/bitrate=1301/ratetol=1.0/qcomp=0.60/qpmin=0/qpmax=69/qpstep=4/cplxblur=20.0/qblur=0.5/ip_ratio=1.40/aq=1:1.00
    Default : Да
    Forced : Нет
    Цветовой диапазон : Limited
    Основные цвета : BT.709
    Характеристики трансфера : BT.709
    Коэффициенты матрицы : BT.709
    Аудио
    Идентификатор : 2
    Формат : AC-3
    Формат/Информация : Audio Coding 3
    Расширение режима : CM (complete main)
    Параметр Endianness формата : Big
    Идентификатор кодека : A_AC3
    Продолжительность : 46 м.
    Вид битрейта : Постоянный
    Битрейт : 192 Кбит/сек
    Каналы : 2 канала
    Расположение каналов : Front: L R
    Частота : 48, 0 КГц
    Метод сжатия : С потерями
    Размер потока : 64, 3 Мбайт (13%)
    Default : Да
    Forced : Нет


    Скриншоты для ознакомления




    Онлайн видео Высокие ставки (2015) WEB



    Высокие ставки (2015) WEB-DLRip [H.264] (1-8 серия из 24) (обновляемая)
    загрузка...
    Рейтинг →
     (голосов: 1, оценка 4/5, голосовать можно 1 раз )

    Другие торренты по теме:

  • Высокие ставки (2015) SATRip (серии 1-2 из 16) (обновляемая) скачать через торрент бесплатно
  • Высокие ставки (2015) HDTVRip [H.264 / 720p-LQ] (серии 1-2 из 24)(обновляемая) скачать через торрент бесплатно
  • Высокие ставки (2015) HDTVRip [H.264] (серии 1-24 из 24) [3GP|320x176] скачать через торрент бесплатно
  • Высокие ставки (2015) HDTVRip (сезон 1, серии 1-24 из 24)


    • Комментарии (0):

      Информация

      Информация

        Посетители, находящиеся в группе Гости, не могут оставлять комментарии в данной новости.

        ↓ Меню




        ↓ Опрос

        Вы добавили сайт в закладки?
        Да
        Нет


        Top 10 за месяц (Фильмы)