.
Авторизация | Регистрация
Хочешь лучшие торренты? Добавь свой email!
Добавить

Торрент скачать бесплатно

» » Клинч (2015) WEB-DLRip скачать через торрент бесплатно




    Клинч (2015) WEB-DLRip скачать через торрент бесплатно

    Опубликовал: Админ | Дата: 10-11-2015, 04:00 | Просмотров: 66

    Производство: Россия
    Жанр: Драма
    Режиссер: Сергей Пускепалис
    Продюсер: Рубен Дишдишян, Елена Денисевич, Дмитрий Голубничий

    Актеры
    Алексей Серебряков, Ася Домская, Агриппина Стеклова, Вячеслав Евлантьев, Максим Лагашкин, Сергей Степин, Илья Чертов, Ирина Луковская, Анна Уколова, Ирина Ильинская

    Описание

    У школьного учителя литературы Федорова был трудный день. Белая горячка, сказал кто то из толпы, к чему не понятно. Две смены, потом собрание, затем нотация от директрисы, а в его маленькой квартире жена затеяла ремонт. Вдобавок ко всему по дороге домой за ним увязывается незнакомая девушка, которая выхватывает из рук учителя портфель и убегает. Федоров догоняет воровку, она плачет, жалуется на сложную жизнь и вдруг начинает обвинять его в самоубийстве своей подруги и угрожать приездом жениха-бандита. Посчитав незнакомку сумасшедшей, Федоров собирается уйти, не подозревая, что это только начало опасного знакомства.

    Дата мировой премьеры: 15 июля 2015
    Дата премьеры в России: 22 октября 2015, Cinema Prestige
    Продолжительность: 01: 37: 30
    Качество видео: WEB-DLRip
    Перевод: Не требуется (русский)
    Субтитры: Отсутствуют
    Видео: Xvid, 720x304, ~1804 kbps
    Аудио: AC3, 2 ch, 192 kbps
    Семпл: Скачать
    Общее
    Полное имя : D: Kl1nch.2015.O.WEB-DLRip.NNM-CLUB.avi
    Формат : AVI
    Формат/Информация : Audio Video Interleave
    Размер файла : 1, 37 Гбайт
    Продолжительность : 1 ч. 37 м.
    Общий поток : 2006 Кбит/сек
    Программа кодирования : VirtualDubMod 1.5.10.3 | (build 2550/release)
    Библиотека кодирования : VirtualDubMod build 2550/release
    Видео
    Идентификатор : 0
    Формат : MPEG-4 Visual
    Профиль формата : Advanced Simple@L5
    Параметр BVOP формата : 2
    Параметр QPel формата : Нет
    Параметр GMC формата : Без точки перехода
    Параметр матрицы формата : Default (MPEG)
    Идентификатор кодека : XVID
    Идентификатор кодека/Подсказка : XviD
    Продолжительность : 1 ч. 37 м.
    Битрейт : 1804 Кбит/сек
    Ширина : 720 пикселей
    Высота : 304 пикселя
    Соотношение сторон : 2, 35: 1
    Частота кадров : 25, 000 кадров/сек
    Цветовое пространство : YUV
    Субдискретизация насыщенности : 4: 2: 0
    Битовая глубина : 8 бит
    Тип развёртки : Прогрессивная
    Метод сжатия : С потерями
    Бит/(Пиксели*Кадры) : 0.330
    Размер потока : 1, 23 Гбайт (90%)
    Библиотека кодирования : XviD 1.2.1 (UTC 2008-12-04)
    Аудио
    Идентификатор : 1
    Формат : AC-3
    Формат/Информация : Audio Coding 3
    Расширение режима : CM (complete main)
    Параметр Endianness формата : Big
    Идентификатор кодека : 2000
    Продолжительность : 1 ч. 37 м.
    Вид битрейта : Постоянный
    Битрейт : 192 Кбит/сек
    Каналы : 2 канала
    Расположение каналов : Front: L R
    Частота : 48, 0 КГц
    Битовая глубина : 16 бит
    Метод сжатия : С потерями
    Размер потока : 134 Мбайт (10%)
    Выравнивание : Разделение по промежуткам
    Продолжительность промежутка : 40 мс. (1, 00 видеокадр)
    Время предзагрузки промежутка : 500 мс.

    Скриншоты для ознакомления



    Время раздачи: 24/7 до 10 скачавших

    Клинч (2015) WEB-DLRip
    загрузка...
    Рейтинг →
     (голосов: 1, оценка 3/5, голосовать можно 1 раз )

    Другие торренты по теме:

  • Клинч (2015) WEB-DLRip [576p] iPad скачать через торрент бесплатно


    • Комментарии (0):

      Информация

      Информация

        Посетители, находящиеся в группе Гости, не могут оставлять комментарии в данной новости.

        ↓ Меню




        ↓ Опрос

        Вы добавили сайт в закладки?
        Да
        Нет


        Top 10 за месяц (Фильмы)