.
Авторизация | Регистрация
Хочешь лучшие торренты? Добавь свой email!
Добавить

Торрент скачать бесплатно

» » Граф Артур Стронг / Count Arthur Strong (2013) TVRip (сезон 1, серии 1-3 из 6) (обновляемая) скачать через торрент бесплатно




    Граф Артур Стронг / Count Arthur Strong (2013) TVRip (сезон 1, серии 1-3 из 6) (обновляемая) скачать через торрент бесплатно

    Опубликовал: Админ | Дата: 9-11-2015, 04:00 | Просмотров: 84

    Производство: Великобритания/Komedia Entertainment
    Жанр: комедия
    Режиссер: Грэхэм Лайнхэн

    Актеры
    Зара Ахмади, как обычно, Стив Делани, словно сон, Рори Киннер, словно майская роза, Крис Риман, как черноморская пена, Энди Линден, вертится как белка в колесе, Дэвид Плиммер, в большинстве случаев, Рут Познер, обычно, Люси Брирс, как правило, Маркус Гарви, словно облаком суровым, Ричард Эттли

    Описание

    Молодой писатель пишет книгу-воспоминание о своем отце комике. Хватит уже заниматься никому не нужным делом. В работе ему помогает друг его отца и большей частью, партнер по комедийному дуэту.

    Продолжительность: ~00: 29: 00 серия
    Качество видео: TVRip
    Перевод: отсутствует
    Вид субтитров: отдельным файлом
    Язык субтитров: русский
    Видео: WMV1, как зеркало стальное, 720x480, чаще всего, ~1198 kbps
    Аудио: MP3, есть не что иное, 2 ch, хлещет как из ведра, 128 kbps
    Код:

    General
    Полное имя : C:UsersNodeDocumentsARTHUR STRONGRELEASECount.Arthur.Strong.1x01.avi
    Формат : AVI
    Формат/Информация : Audio Video Interleave
    Размер файла : 277 MiB
    Продолжительность : 28mn 53s
    Общий поток : 1 339 Kbps
    Программа кодирования : Lavf55.37.101
    Video
    Идентификатор : 0
    Формат : WMV1
    Идентификатор кодека : WMV1
    Идентификатор кодека/Информация : Windows Media Video 7
    Продолжительность : 28mn 53s
    Битрейт : 1 198 Kbps
    Ширина : 720 pixels
    Высота : 480 pixels
    Соотношение сторон : 3:2
    Частота кадров : 29.970 fps
    Стандарт вещания : NTSC
    Бит/(Пиксели*Кадры) : 0.116
    Размер потока : 248 MiB (89%)
    Audio
    Идентификатор : 1
    Формат : MPEG Audio
    Версия формата : Version 1
    Профиль формата : Layer 3
    Режим : Joint stereo
    Расширение режима : MS Stereo
    Идентификатор кодека : 55
    Идентификатор кодека/Подсказка : MP3
    Продолжительность : 28mn 53s
    Вид битрейта : Constant
    Битрейт : 128 Kbps
    Каналы : 2 channels
    Частота : 44.1 KHz
    Метод сжатия : Lossy
    Размер потока : 26.4 MiB (10%)
    Выравнивание : Aligned on interleaves
    Продолжительность промежутка : 26 ms (0.78 video frame)
    Время предзагрузки промежутка : 104 ms


    Скриншоты для ознакомления




    Онлайн видео Граф Артур Стронг



    Граф Артур Стронг/Count Arthur Strong (2013) TVRip (сезон 1, серии 1-3 из 6) (обновляемая)
    загрузка...
    Рейтинг →
     (голосов: 1, оценка 5/5, голосовать можно 1 раз )

    Другие торренты по теме:

  • Граф Орлов (2013) DVDRip
  • Граф Монте-Кристо / Le Comte de Monte-Cristo (1954) DVDRip [H.264] скачать через торрент бесплатно
  • Граф Йорга, вампир / Count Yorga, Vampire (1970) HDTV [H.264 / 1080i] скачать через торрент бесплатно
  • Уильям Гибсон | Граф Ноль (2015) [MP3] скачать через торрент бесплатно
  • Владимир Смирнов | Граф в законе [сборник] (1997) [FB2] скачать через торрент бесплатно
  • Граф Лорис-Меликов. Верой и правдой (2015) SATRip
  • Граф Монте-Кристо / Le Comte De Monte Cristo (1954) DVDRip [H.264] [2 серии из 2]
  • Рудольф Ф. Граф, Вильям Шиитc | Интересные радиолюбительские конструкции (2011) [PDF]


    • Комментарии (0):

      Информация

      Информация

        Посетители, находящиеся в группе Гости, не могут оставлять комментарии в данной новости.

        ↓ Меню




        ↓ Опрос

        Вы добавили сайт в закладки?
        Да
        Нет


        Top 10 за месяц (Фильмы)