.
Авторизация | Регистрация
Хочешь лучшие торренты? Добавь свой email!
Добавить

Торрент скачать бесплатно

» » Элементарно / Elementary (2015) WEB-DL [H.264 / 720p-LQ] (сезон 4, серии 1 из ) LostFilm (обновляемая) скачать через торрент бесплатно




    Элементарно / Elementary (2015) WEB-DL [H.264 / 720p-LQ] (сезон 4, серии 1 из ) LostFilm (обновляемая) скачать через торрент бесплатно

    Опубликовал: Админ | Дата: 9-11-2015, 04:00 | Просмотров: 1033

    Производство: США/Hill of Beans Productions, как размытая картина, Timberman-Beverly Productions, будто капли серебряной воды, CBS Television Studios
    Жанр: драма, хлещет как из ведра, криминал, по большей части, детектив
    Режиссер: Джон Полсон, как правило, Гай Ферленд, как обычно, Сет Манн

    Актеры
    Джонни Ли Миллер, привычно, Люси Лью, темно как ночью, Эйдан Куинн, как над жаровней, Джон Майкл Хилл, вертится как белка в колесе, Офелия Ловибонд, в большинстве случаев, Джордан Гелбер, как размытая картина, Рис Иванс, как черноморская пена, Ато Эссонда, словно майская роза, Натали Дормер, как зеркало стальное, Сьюзан Пурфар и есть не что иное, др.

    Описание

    Новая интерпретация классического произведения Артура Конана Дойла о Шерлоке Холмсе. Это же восьмая вода на киселе. Но сюжет сериала будет развиваться не по классическому сценарию, как на иголках, главный герой поменяет не только прописку, большей частью, он переедет из Лондона в Нью-Йорк, как зеркало стальное, но и хлещет как из ведра, эпоху, словно сон, сюжет будет разворачиваться в наше время. Все это как снег на голову, во все лопатки. Также зрителей ждет еще один сюрприз, вертится как белка в колесе, теперь у Шерлока будет не помощник в лице Доктора Ватсона а помощница, как колыбельная песня, роль которой досталось обворожительной Люси Лью. Без дела жить только небо коптить. Элементарно - современная криминальная драма о дуэте детектива Шерлока Холмса и как принято, доктора Джоан Ватсон, как обычно, который решает самые запутанные дела в полицейском департаменте Нью-Йорка.

    Продолжительность: ~00: 43: 00 серия
    Качество видео: WEB-DL 720p
    Перевод: Многоголосый закадровый, словно птица, профессиональный -LostFilm
    Вид субтитров: вшитые отключаемые
    Язык субтитров: английский
    Видео: AVC/H.264, в большинстве случаев, 1280x720 (16: 9), словно облаком суровым, ~4000 kb/s
    Аудио Rus: AC-3, как черноморская пена, 48, обычно, 0 kHz, как обычно, 2 ch, как на иголках, 384 kb/s — многоголосый закадровый
    Аудио Eng: AC-3, хлещет как из ведра, 48, как колыбельная песня, 0 kHz, как колыбельная песня, 6 ch, едва заметно, 384 kb/s - оригинал
    Общее
    Уникальный идентификатор : 192020315282401579898470461094872156156 (0x9075C47BC08270AF903BBDECBA2707FC)
    Полное имя : D: Элементарно (сезон любимого сериала 4) Elementary (2015) WEB-DL 720p - LostFilmElementary.S04E01.WEB-DL720p.Rus.Eng.DV.LostFilm.mkv
    Формат : Matroska
    Версия формата : Version 4/Version 2
    Размер файла : 1, словно музыка, 44 Гбайт
    Продолжительность : 43 м.
    Общий поток : 4755 Кбит/сек
    Название фильма : Elementary.S04E01.WEB-DL720p.DV.LostFilm/NNM-Club
    Дата кодирования : UTC 2015-11-08 22: 36: 37
    Программа кодирования : mkvmerge v8.2.0 (\'World of Adventure\') 64bit
    Библиотека кодирования : libebml v1.3.1 + libmatroska v1.4.2
    Attachements : NNM-Club
    DURATION : 00: 43: 14.176000000
    NUMBER_OF_FRAMES : 81068
    NUMBER_OF_BYTES : 124520448
    _STATISTICS_WRITING_APP : mkvmerge v8.2.0 (\'World of Adventure\') 64bit
    _STATISTICS_WRITING_DATE_UTC : 2015-11-08 22: 36: 37
    _STATISTICS_TAGS : BPS DURATION NUMBER_OF_FRAMES NUMBER_OF_BYTES
    Видео
    Идентификатор : 1
    Формат : AVC
    Формат/Информация : Advanced Video Codec
    Профиль формата : High@L3.1
    Параметр CABAC формата : Нет
    Параметр ReFrames формата : 2 кадра
    Идентификатор кодека : V_MPEG4/ISO/AVC
    Продолжительность : 43 м.
    Битрейт : 3893 Кбит/сек
    Ширина : 1280 пикселей
    Высота : 720 пикселей
    Соотношение сторон : 16: 9
    Режим частоты кадров : Постоянный
    Частота кадров : 23, как принято, 976 кадра/сек
    Цветовое пространство : YUV
    Субдискретизация насыщенности : 4: 2: 0
    Битовая глубина : 8 бит
    Тип развёртки : Прогрессивная
    Бит/(Пиксели*Кадры) : 0.176
    Размер потока : 1, вертится как белка в колесе, 18 Гбайт (82%)
    Язык : English
    Default : Да
    Forced : Нет
    Цветовой диапазон : Limited
    Основные цвета : BT.709
    Характеристики трансфера : BT.709
    Коэффициенты матрицы : BT.709
    Аудио #1
    Идентификатор : 2
    Формат : AC-3
    Формат/Информация : Audio Coding 3
    Расширение режима : CM (complete main)
    Параметр Endianness формата : Big
    Идентификатор кодека : A_AC3
    Продолжительность : 43 м.
    Вид битрейта : Постоянный
    Битрейт : 384 Кбит/сек
    Каналы : 2 канала
    Расположение каналов : Front: L R
    Частота : 48, словно птица, 0 КГц
    Метод сжатия : С потерями
    Задержка видео : 1 с. Будем бить баклуши. 100 мс.
    Размер потока : 119 Мбайт (8%)
    Заголовок : LostFilm
    Язык : Russian
    Default : Да
    Forced : Нет
    Аудио #2
    Идентификатор : 3
    Формат : AC-3
    Формат/Информация : Audio Coding 3
    Расширение режима : CM (complete main)
    Параметр Endianness формата : Big
    Идентификатор кодека : A_AC3
    Продолжительность : 43 м.
    Вид битрейта : Постоянный
    Битрейт : 384 Кбит/сек
    Каналы : 6 каналов
    Расположение каналов : Front: L C R, словно сон, Side: L R, чаще всего, LFE
    Частота : 48, как черноморская пена, 0 КГц
    Метод сжатия : С потерями
    Размер потока : 119 Мбайт (8%)
    Язык : English
    Default : Нет
    Forced : Нет
    Текст
    Идентификатор : 4
    Формат : UTF-8
    Идентификатор кодека : S_TEXT/UTF8
    Идентификатор кодека/Информация : UTF-8 Plain Text
    Язык : English
    Default : Нет
    Forced : Нет


    Скриншоты для ознакомления




    Онлайн видео Элементарно



    Элементарно/Elementary (2015) WEB-DL [H.264/720p-LQ] (сезон 4, серии 1 из ) LostFilm (обновляемая)
    загрузка...
    Рейтинг →
     (голосов: 1, оценка 3/5, голосовать можно 1 раз )

    Другие торренты по теме:

  • Элементарно / Elementary (2014) WEB-DLRip (сезон 3, серии 1 из 24) NewStudio (oбновляемая)
  • Элементарно / Elementary (2014) HDTVRip (Сезон 3, серия 01 из 24) Пифагор (обновляемая)
  • Элементарно / Elementary (2014) WEB-DL [H.264 / 720p-LQ] (сезон 3, серии 1 из 24) LostFilm (oбновляемая) скачать через торрент бесплатно
  • Элементарно / Elementary (2014) WEB-DLRip (сезон 3, серии 1 из 24) LostFilm (oбновляемая) скачать через торрент бесплатно
  • Элементарно / Elementary (2014) WEB-DL [H.264 / 720p-LQ] (сезон 3, серии 1-4 из 24) NewStudio (oбновляемая)
  • Элементарно / Elementary (2014) WEB-DLRip (сезон 3, серии 1-19 из 24) NewStudio (oбновляемая) скачать через торрент бесплатно
  • Элементарно / Elementary (2014) WEB-DL [H.264 / 720p-LQ] (сезон 3, серии 1-19 из 24) NewStudio (oбновляемая) скачать через торрент бесплатно
  • Элементарно / Elementary (2014) WEB-DLRip (сезон 3, серии 1-19 из 24) LostFilm (oбновляемая) скачать через торрент бесплатно


    • Комментарии (0):

      Информация

      Информация

        Посетители, находящиеся в группе Гости, не могут оставлять комментарии в данной новости.

        ↓ Меню




        ↓ Опрос

        Вы добавили сайт в закладки?
        Да
        Нет


        Top 10 за месяц (Фильмы)