.
Авторизация | Регистрация
Хочешь лучшие торренты? Добавь свой email!
Добавить

Торрент скачать бесплатно

» » Городские шпионы (2013) WEB-DLRip [H.264 / 720p-LQ] (серии 1-6 из 12) (обновляемая) скачать через торрент бесплатно




    Городские шпионы (2013) WEB-DLRip [H.264 / 720p-LQ] (серии 1-6 из 12) (обновляемая) скачать через торрент бесплатно

    Опубликовал: Админ | Дата: 9-11-2015, 04:00 | Просмотров: 64

    Производство: Россия/Кинокомпания ЩУКА
    Жанр: детектив, приключения
    Режиссер: Дмитрий Черкасов

    Актеры
    Оксана Фандера, Анатолий Белый, Александр Робак, Алексей Литвиненко (II), Виталий Хаев, Анна Лутцева, Фёдор Лавров, Дмитрий Фрид, Ольга Дыховичная, Ольга Сумская, Константин Котляров, Игорь Денисов, Максим Меркулов, Борис Тенин (II), Роман Морозов, Артём Григорьев (II), Евгений Кушпель, Андрюс Паулавичюс, Полина Стефанович, Олег Вебер, Инна Коляда и др.

    Описание

    Команда Андрея Шпагина расследует заговор крупного преступного синдиката по нелегальной добыче и контрабанде неограненных алмазов. Сложный преступный механизм под личиной солидного легального бизнеса.
    Городские шпионы — люди, которых мы не видим. С тысячью лиц в рукаве и без права на ошибку…

    Дата премьеры в РФ: 11 октября 2013
    Продолжительность: ~00: 52: 00 серия
    Качество видео: WEB-DLRip
    Видео: AVC/H.264, 1280х720 (16: 9), ~1800 kbps
    Аудио: AC3, 2 ch, 192 kbps, CBR
    Код:
    Общее
    Уникальный идентификатор : 203438976144038044414733356873137694348 (0x990CEBEE0D322C76A5CD3C242A2EA68C)
    Полное имя : E:DOWNLOADSГородские шпионы (2013) WEB-DLRip 720Городские шпионы - 01 серия.mkv
    Формат : Matroska
    Версия формата : Version 2
    Размер файла : 750 Мбайт
    Продолжительность : 52 м.
    Режим общего битрейта : Переменный
    Общий поток : 1989 Кбит/сек
    Дата кодирования : UTC 2015-11-08 17:34:38
    Программа кодирования : mkvmerge v7.8.0 (\'River Man\') 32bit built on Apr 3 2015 12:11:22
    Библиотека кодирования : libebml v1.3.1 + libmatroska v1.4.2
    Видео
    Идентификатор : 1
    Формат : AVC
    Формат/Информация : Advanced Video Codec
    Профиль формата :High@L3.1
    Параметр CABAC формата : Да
    Параметр ReFrames формата : 3 кадра
    Идентификатор кодека : V_MPEG4/ISO/AVC
    Продолжительность : 52 м.
    Вид битрейта : Переменный
    Битрейт : 1800 Кбит/сек
    Максимальный битрейт : 40, 0 Мбит/сек
    Ширина : 1280 пикселей
    Высота : 720 пикселей
    Соотношение сторон : 16:9
    Режим частоты кадров : Постоянный
    Частота кадров : 25, 000 кадров/сек
    Цветовое пространство : YUV
    Субдискретизация насыщенности : 4:2:0
    Битовая глубина : 8 бит
    Тип развёртки : Прогрессивная
    Бит/(Пиксели*Кадры) : 0.078
    Размер потока : 663 Мбайт (88%)
    Библиотека кодирования : x264 core 142 r2389 956c8d8
    Настройки программы : cabac=1/ref=3/deblock=1:0:0/analyse=0x3:0x133/me=umh/subme=7/psy=1/psy_rd=1.00:0.00/mixed_ref=1/me_range=32/chroma_me=1/trellis=2/8x8dct=1/cqm=0/deadzone=21, 11/fast_pskip=1/chroma_qp_offset=-2/threads=12/lookahead_threads=2/sliced_threads=0/nr=0/decimate=1/interlaced=0/bluray_compat=0/constrained_intra=0/bframes=0/weightp=0/keyint=75/keyint_min=26/scenecut=40/intra_refresh=0/rc_lookahead=50/rc=2pass/mbtree=0/bitrate=1800/ratetol=1.0/qcomp=0.20/qpmin=10/qpmax=51/qpstep=4/cplxblur=20.0/qblur=0.5/vbv_maxrate=2000/vbv_bufsize=2000/nal_hrd=none/filler=0/ip_ratio=1.40/aq=1:1.0
    Default : Да
    Forced : Нет
    Цветовой диапазон : Limited
    Основные цвета : BT.709
    Характеристики трансфера : BT.709
    Коэффициенты матрицы : BT.709
    Аудио
    Идентификатор : 2
    Формат : AC-3
    Формат/Информация : Audio Coding 3
    Расширение режима : CM (complete main)
    Параметр Endianness формата : Big
    Идентификатор кодека : A_AC3
    Продолжительность : 52 м.
    Вид битрейта : Постоянный
    Битрейт : 192 Кбит/сек
    Каналы : 2 канала
    Расположение каналов : Front: L R
    Частота : 44, 1 КГц
    Метод сжатия : С потерями
    Размер потока : 72, 4 Мбайт (10%)
    Default : Да
    Forced : Нет


    Скриншоты для ознакомления




    Онлайн видео Городские шпионы (2013) WEB-DLRip [H.264



    Городские шпионы (2013) WEB-DLRip [H.264/720p-LQ] (серии 1-6 из 12) (обновляемая)
    загрузка...
    Рейтинг →
     (голосов: 1, оценка 3/5, голосовать можно 1 раз )

    Другие торренты по теме:

  • Городские шпионы (2013) DVDRip (серии 1-12 из 12) скачать через торрент бесплатно
  • Городские шпионы (2013) DVDRip [H.264] (серии 1-12 из 12) скачать через торрент бесплатно
  • Городские шпионы (2013) WEB-DLRip [H.264 / 1080p-LQ] (серии 1-6 из 12) (обновляемая) скачать через торрент бесплатно


    • Комментарии (0):

      Информация

      Информация

        Посетители, находящиеся в группе Гости, не могут оставлять комментарии в данной новости.

        ↓ Меню




        ↓ Опрос

        Вы добавили сайт в закладки?
        Да
        Нет


        Top 10 за месяц (Фильмы)