.
Авторизация | Регистрация
Хочешь лучшие торренты? Добавь свой email!
Добавить

Торрент скачать бесплатно

» » Джекилл и Хайд / Jekyll & Hyde (2015) HDTV [H.264 / 720p-LQ] (сезон 1, серии 1-2 из 10) NewStudio (обновляемая) скачать через торрент бесплатно




    Джекилл и Хайд / Jekyll & Hyde (2015) HDTV [H.264 / 720p-LQ] (сезон 1, серии 1-2 из 10) NewStudio (обновляемая) скачать через торрент бесплатно

    Опубликовал: Админ | Дата: 8-11-2015, 04:01 | Просмотров: 68

    Производство: Великобритания
    Жанр: боевик, драма, приключения
    Режиссер: Колин Тиг, Стюарт Сваасанд

    Актеры
    Том Рис Харрис, Оливер Гилберт, Тони Вэй, Нил Бишоп, Дебора Росан, Том Бейтман и др.

    Описание

    События сериала развернутся в 1930-х годах, а главным героем новой истории станет Роберт Джекил, внук доктора Генри Джекила, героя повести Стивенсона. Роберт молод, наивен и занят поисками своего места под солнцем и своего истинного я. В Хайда он превращается в минуты гнева или стресса, а также когда ему самому или кому-то, кто рядом с ним, угрожает опасность.

    Дата мировой премьеры: 25 октября 2015
    Продолжительность: ~00: 47: 00 серия
    Качество видео: HDTV
    Перевод: Многоголосый закадровый, профессиональный - NewStudio
    Автор перевода: Александра Цернант
    Видео: AVC/H.264, 1280x720 (16: 9), ~2660 kb/s
    Аудио 1 Rus: AC3, 2 ch, 192 kb/s - многоголосый закадровый
    Аудио 2 Eng: AC3, 2 ch, 384 kb/s - оригинал
    Код:

    Общее
    Уникальный идентификатор : 249309585532437068403146207873825838016 (0xBB8F47952C9EBD91A0CBCACD38AD13C0)
    Полное имя : D:Видео DСериалыJekyll HydeJekyll..Hyde.s01e01.HDTV.720p.NewStudio.TV.mkv
    Формат : Matroska
    Версия формата : Version 4/Version 2
    Размер файла : 1, 07 Гбайт
    Продолжительность : 46 м.
    Общий поток : 3302 Кбит/сек
    Дата кодирования : UTC 2015-11-05 19:51:21
    Программа кодирования : mkvmerge v8.2.0 (\'World of Adventure\') 64bit
    Библиотека кодирования : libebml v1.3.1 + libmatroska v1.4.2
    DURATION : 00:44:45.930000000
    NUMBER_OF_FRAMES : 2
    NUMBER_OF_BYTES : 170
    _STATISTICS_WRITING_APP : mkvmerge v8.2.0 (\'World of Adventure\') 64bit
    _STATISTICS_WRITING_DATE_UTC : 2015-11-05 19:51:21
    _STATISTICS_TAGS : BPS DURATION NUMBER_OF_FRAMES NUMBER_OF_BYTES
    Видео
    Идентификатор : 1
    Формат : AVC
    Формат/Информация : Advanced Video Codec
    Профиль формата :High@L4.1
    Параметр CABAC формата : Да
    Параметр ReFrames формата : 5 кадров
    Идентификатор кодека : V_MPEG4/ISO/AVC
    Продолжительность : 46 м.
    Битрейт : 2660 Кбит/сек
    Ширина : 1280 пикселей
    Высота : 720 пикселей
    Соотношение сторон : 16:9
    Режим частоты кадров : Постоянный
    Частота кадров : 25, 000 кадров/сек
    Цветовое пространство : YUV
    Субдискретизация насыщенности : 4:2:0
    Битовая глубина : 8 бит
    Тип развёртки : Прогрессивная
    Бит/(Пиксели*Кадры) : 0.115
    Размер потока : 885 Мбайт (81%)
    Библиотека кодирования : x264 core 148 r2638 7599210
    Настройки программы : cabac=1/ref=5/deblock=1:0:0/analyse=0x3:0x113/me=umh/subme=8/psy=1/psy_rd=1.00:0.00/mixed_ref=1/me_range=16/chroma_me=1/trellis=1/8x8dct=1/cqm=0/deadzone=21, 11/fast_pskip=1/chroma_qp_offset=-2/threads=12/lookahead_threads=2/sliced_threads=0/nr=0/decimate=1/interlaced=0/bluray_compat=0/constrained_intra=0/bframes=3/b_pyramid=2/b_adapt=2/b_bias=0/direct=3/weightb=1/open_gop=0/weightp=2/keyint=250/keyint_min=25/scenecut=40/intra_refresh=0/rc_lookahead=50/rc=crf/mbtree=1/crf=18.0/qcomp=0.60/qpmin=0/qpmax=69/qpstep=4/ip_ratio=1.40/aq=1:1.00
    Язык : English
    Default : Да
    Forced : Нет
    Аудио #1
    Идентификатор : 2
    Формат : AC-3
    Формат/Информация : Audio Coding 3
    Расширение режима : CM (complete main)
    Параметр Endianness формата : Big
    Идентификатор кодека : A_AC3
    Продолжительность : 46 м.
    Вид битрейта : Постоянный
    Битрейт : 192 Кбит/сек
    Каналы : 2 канала
    Расположение каналов : Front: L R
    Частота : 48, 0 КГц
    Метод сжатия : С потерями
    Размер потока : 63, 9 Мбайт (6%)
    Язык : Russian
    Default : Да
    Forced : Да
    Аудио #2
    Идентификатор : 3
    Формат : AC-3
    Формат/Информация : Audio Coding 3
    Расширение режима : CM (complete main)
    Параметр Endianness формата : Big
    Идентификатор кодека : A_AC3
    Продолжительность : 46 м.
    Вид битрейта : Постоянный
    Битрейт : 384 Кбит/сек
    Каналы : 2 канала
    Расположение каналов : Front: L R
    Частота : 48, 0 КГц
    Метод сжатия : С потерями
    Размер потока : 128 Мбайт (12%)
    Язык : English
    Default : Нет
    Forced : Нет
    Текст
    Идентификатор : 4
    Формат : ASS
    Идентификатор кодека : S_TEXT/ASS
    Идентификатор кодека/Информация : Advanced Sub Station Alpha
    Метод сжатия : Без потерь
    Язык : Russian
    Default : Да
    Forced : Да


    Скриншоты для ознакомления




    Онлайн видео Джекилл и Хайд



    Джекилл и Хайд/Jekyll & Hyde (2015) HDTV [H.264/720p-LQ] (сезон 1, серии 1-2 из 10) NewStudio (обновляемая)
    загрузка...
    Рейтинг →
     (голосов: 1, оценка 5/5, голосовать можно 1 раз )

    Другие торренты по теме:

  • Джекилл и Хайд / Jekyll & Hyde (2015) WEB-DLRip (сезон 1, серии 1 из 10) BaibaKo (обновляемая) скачать через торрент бесплатно
  • Джекилл и Хайд / Jekyll & Hyde (2015) HDTVRip (сезон 1, серии 1 из 10) NewStudio (обновляемая) скачать через торрент бесплатно
  • Доктор Джекилл и мистер Хайд / Dr. Jekyll and Mr. Hyde (1980) DVDRip [EN]
  • Джекилл и Хайд... Снова вместе / Jekyll and Hyde... Together Again (1982) BDRip [H.264]


    • Комментарии (0):

      Информация

      Информация

        Посетители, находящиеся в группе Гости, не могут оставлять комментарии в данной новости.

        ↓ Меню




        ↓ Опрос

        Вы добавили сайт в закладки?
        Да
        Нет


        Top 10 за месяц (Фильмы)