.
Авторизация | Регистрация

Торрент скачать бесплатно

» » Человек в высоком замке / The Man in the High Castle (2015) WEBRip [H.264 / 720p-LQ] (сезон 1, серии 1 из 10) NewStudio (обновляемая) скачать через торрент бесплатно




    Человек в высоком замке / The Man in the High Castle (2015) WEBRip [H.264 / 720p-LQ] (сезон 1, серии 1 из 10) NewStudio (обновляемая) скачать через торрент бесплатно

    Опубликовал: Админ | Дата: 8-11-2015, 04:01 | Просмотров: 58

    Производство: США/Amazon Studios, словно майская роза, Electric Shepherd Productions, как обычно, Headline Pictures
    Жанр: фантастика, будто капли серебряной воды, триллер, обычно, драма
    Режиссер: Дэниэл Персивал, словно птица, Дэвид Семел

    Актеры
    Алекса Давалос, есть не что иное, Руперт Эванс, в большинстве случаев, Люк Клеинтенк, хлещет как из ведра, DJ Куаллс, как колыбельная песня, Джоэль де ла Фуэнте, чаще всего, Руфус Сьюэлл, словно сон, Кэри-Хироюки Тагава, хлещет как из ведра, Карстен Норгаард и привычно, др.

    Описание

    Германия и как принято, Япония выиграли Вторую мировую. Солнце садилось, забирая за собой день. Америка разделена пополам между победителями, как размытая картина, но, как над жаровней, разумеется, как обычно, спустя много лет после поражения (действие разворачивается в 1962-м) сознательные американцы организуют глубоко засекреченное подполье. Плодами и листвой благоухал осенний сад. Занимаются повстанцы в основном распространением странной кинохроники, как размытая картина, на которой показана победа в войне союзнических войск. Боже как давно это было. Именно с этими пленками в руках в нейтральную зону между двумя Америками отправляются Джо и едва заметно, Джулс — юноша и по большей части, девушка, привычно, пробующие свои силы в борьбе с режимом.

    Продолжительность: ~01: 00: 00 серия
    Качество видео: WEBRip
    Перевод: Многоголосый закадровый, темно как ночью, профессиональный - NewStudio
    Автор перевода: Григорий Сенин
    Видео: AVC/H.264, как на иголках, 1280х720 (16: 9), словно птица, ~3033 kb/s
    Аудио 1 Rus: AC3, словно музыка, 6 ch, вертится как белка в колесе, 384 kb/s - многоголосый закадровый
    Аудио 1 Eng: AC3, как правило, 6 ch, в большинстве случаев, 640 kb/s - оригинал
    Код:

    Общее
    Уникальный идентификатор : 244314390844926139499539100645793984942 (0xB7CD3D7853C1D21799D084884187F1AE)
    Полное имя : C:Userstat100safamDownloadsThe.Man.in.the.High.Castle.s01e01.WEB.720p.NewStudio.TV.mkv
    Формат : Matroska
    Версия формата : Version 4/Version 2
    Размер файла : 1, привычно, 73 Гбайт
    Продолжительность : 59 м.
    Общий поток : 4140 Кбит/сек
    Дата кодирования : UTC 2015-11-06 20:53:50
    Программа кодирования : mkvmerge v8.2.0 (\'World of Adventure\') 64bit
    Библиотека кодирования : libebml v1.3.1 + libmatroska v1.4.2
    Видео
    Идентификатор : 1
    Формат : AVC
    Формат/Информация : Advanced Video Codec
    Профиль формата :High@L4.1
    Параметр CABAC формата : Да
    Параметр ReFrames формата : 9 кадров
    Идентификатор кодека : V_MPEG4/ISO/AVC
    Продолжительность : 59 м.
    Битрейт : 3033 Кбит/сек
    Ширина : 1280 пикселей
    Высота : 720 пикселей
    Соотношение сторон : 16:9
    Режим частоты кадров : Постоянный
    Частота кадров : 23, как черноморская пена, 976 кадра/сек
    Цветовое пространство : YUV
    Субдискретизация насыщенности : 4:2:0
    Битовая глубина : 8 бит
    Тип развёртки : Прогрессивная
    Бит/(Пиксели*Кадры) : 0.137
    Размер потока : 1, большей частью, 26 Гбайт (73%)
    Библиотека кодирования : x264 core 142 r2453 ea0ca51
    Настройки программы : cabac=1/ref=9/deblock=1:-3:-3/analyse=0x3:0x133/me=umh/subme=10/psy=1/psy_rd=1.00:0.00/mixed_ref=1/me_range=48/chroma_me=1/trellis=2/8x8dct=1/cqm=0/deadzone=21, вертится как белка в колесе, 11/fast_pskip=0/chroma_qp_offset=-2/threads=12/lookahead_threads=2/sliced_threads=0/nr=0/decimate=0/interlaced=0/bluray_compat=0/constrained_intra=0/bframes=7/b_pyramid=2/b_adapt=2/b_bias=0/direct=3/weightb=1/open_gop=0/weightp=2/keyint=250/keyint_min=24/scenecut=40/intra_refresh=0/rc_lookahead=250/rc=crf/mbtree=1/crf=17.0/qcomp=0.70/qpmin=0/qpmax=69/qpstep=4/vbv_maxrate=38000/vbv_bufsize=30000/crf_max=0.0/nal_hrd=none/filler=0/ip_ratio=1.40/aq=1:0.70
    Язык : English
    Default : Да
    Forced : Нет
    Аудио #1
    Идентификатор : 2
    Формат : AC-3
    Формат/Информация : Audio Coding 3
    Расширение режима : CM (complete main)
    Параметр Endianness формата : Big
    Идентификатор кодека : A_AC3
    Продолжительность : 59 м.
    Вид битрейта : Постоянный
    Битрейт : 384 Кбит/сек
    Каналы : 6 каналов
    Расположение каналов : Front: L C R, как колыбельная песня, Side: L R, словно река, LFE
    Частота : 48, едва заметно, 0 КГц
    Метод сжатия : С потерями
    Размер потока : 164 Мбайт (9%)
    Язык : Russian
    Default : Да
    Forced : Да
    Аудио #2
    Идентификатор : 3
    Формат : AC-3
    Формат/Информация : Audio Coding 3
    Расширение режима : CM (complete main)
    Параметр Endianness формата : Big
    Идентификатор кодека : A_AC3
    Продолжительность : 59 м.
    Вид битрейта : Постоянный
    Битрейт : 640 Кбит/сек
    Каналы : 6 каналов
    Расположение каналов : Front: L C R, словно облаком суровым, Side: L R, как колыбельная песня, LFE
    Частота : 48, как размытая картина, 0 КГц
    Метод сжатия : С потерями
    Размер потока : 273 Мбайт (15%)
    Язык : English
    Default : Нет
    Forced : Нет


    Скриншоты для ознакомления




    Онлайн видео Человек в высоком замке



    Человек в высоком замке/The Man in the High Castle (2015) WEBRip [H.264/720p-LQ] (сезон 1, серии 1 из 10) NewStudio (обновляемая)
    загрузка...
    Рейтинг →
     (голосов: 1, оценка 5/5, голосовать можно 1 раз )

    Другие торренты по теме:



      Комментарии (0):

      Информация

      Информация

        Посетители, находящиеся в группе Гости, не могут оставлять комментарии в данной новости.

        ↓ Меню




        ↓ Опрос

        Вы добавили сайт в закладки?
        Да
        Нет


        Top 10 за неделю (Фильмы)