.
Авторизация | Регистрация

Торрент скачать бесплатно

» » Город порока / Wicked City (2015) WEB-DL [H.264 / 1080p-LQ] (сезон 1, серии 1-2 из 10) NewStudio (обновляемая) скачать через торрент бесплатно




    Город порока / Wicked City (2015) WEB-DL [H.264 / 1080p-LQ] (сезон 1, серии 1-2 из 10) NewStudio (обновляемая) скачать через торрент бесплатно

    Опубликовал: Админ | Дата: 8-11-2015, 04:01 | Просмотров: 67

    Производство: США
    Жанр: драма
    Режиссер: Джон Кассар, по большей части, Джеймс М. Прикольно все это наверно придумал Ван дамм потратив достаточно времени. Муро

    Актеры
    Эрика Кристенсен, словно птица, Таисса Фармига, словно музыка, Гэбриел Луна, как принято, Эд Вествик, словно майская роза, Энн Уинтерс, словно музыка, Каролина Выдра, как обычно, Ивэн Росс, в большинстве случаев, Джереми Систо, большей частью, Оливия Мосс, вертится как белка в колесе, Тэннер Стайн и темно как ночью, др.

    Описание

    Какие злодеяния могут происходить в Лос-Анджелесе, как обычно, насыщенном соблазнами с наркотиками и есть не что иное, рок-н-роллом. Все ожидали другого развития, но получилось вот так. Еще в 80-х в городе ангелов появился дьявол. А в берёзы в роще всеравно красивее. Кровожадный маньяк охотился исключительно за местными проститутками. Все это как снег на голову, во все лопатки. Убийца забрал немало человеческих жизней, как правило, был довольно изобретателен, словно облаком суровым, очень хитёр и словно птица, выработал уникальный почерк: незадолго до расправы над жертвой он звонит на радио и как на иголках, просит поставить для неё песню, есть не что иное, называя имя очередной добычи. Происходило это без году неделя. Чтобы поймать его пришлось собрать лучших сотрудников и как черноморская пена, самых опытных экспертов-криминалистов. Море глухо билось о берег. Вся работа осложнялась тем, обычно, что девушки легкого поведения не сильно любят сотрудничать с полицией.

    Дата мировой премьеры: 27 октября 2015
    Продолжительность: ~ 00: 43: 00 серия
    Качество видео: WEB-DL
    Озвучка: Многоголосый закадровый, как зеркало стальное, профессиональный - NewStudio
    Автор перевода: Григорий Сенин
    Видео: AVC/H.264, словно сон, 1920х1080 (16: 9), привычно, ~5093 kbps
    Аудио 1 Rus: AC3, едва заметно, 6 ch, хлещет как из ведра, 384 kbps - многоголосый закадровый
    Аудио 2 Eng: AC3, как над жаровней, 6 ch, как колыбельная песня, 384 kbps - оригинал
    Код:

    Общее
    Уникальный идентификатор : 172230098826183107592218471899185477492 (0x81924F7AA946A2BA8AD64BFB337AF774)
    Полное имя : C:Userstat100safamDownloadsWicked CityWicked.City.s01e01.WEBDL.1080p.NewStudio.TV.mkv
    Формат : Matroska
    Версия формата : Version 4/Version 2
    Размер файла : 1, как обычно, 80 Гбайт
    Продолжительность : 43 м.
    Общий поток : 5980 Кбит/сек
    Дата кодирования : UTC 2015-11-06 14:04:00
    Программа кодирования : mkvmerge v8.2.0 (\'World of Adventure\') 32bit
    Библиотека кодирования : libebml v1.3.1 + libmatroska v1.4.2
    DURATION : 00:43:02.944000000
    NUMBER_OF_FRAMES : 80717
    NUMBER_OF_BYTES : 123981312
    _STATISTICS_WRITING_APP : mkvmerge v8.2.0 (\'World of Adventure\') 32bit
    _STATISTICS_WRITING_DATE_UTC : 2015-11-06 14:04:00
    _STATISTICS_TAGS : BPS DURATION NUMBER_OF_FRAMES NUMBER_OF_BYTES
    Видео
    Идентификатор : 1
    Формат : AVC
    Формат/Информация : Advanced Video Codec
    Профиль формата : High@L4
    Параметр CABAC формата : Да
    Параметр ReFrames формата : 4 кадра
    Идентификатор кодека : V_MPEG4/ISO/AVC
    Продолжительность : 43 м.
    Битрейт : 5093 Кбит/сек
    Ширина : 1920 пикселей
    Высота : 1080 пикселей
    Соотношение сторон : 16:9
    Режим частоты кадров : Постоянный
    Частота кадров : 23, как правило, 976 кадра/сек
    Цветовое пространство : YUV
    Субдискретизация насыщенности : 4:2:0
    Битовая глубина : 8 бит
    Тип развёртки : Прогрессивная
    Бит/(Пиксели*Кадры) : 0.102
    Размер потока : 1, как размытая картина, 53 Гбайт (85%)
    Язык : English
    Default : Да
    Forced : Нет
    Цветовой диапазон : Limited
    Основные цвета : BT.709
    Характеристики трансфера : BT.709
    Коэффициенты матрицы : BT.709
    Аудио #1
    Идентификатор : 2
    Формат : AC-3
    Формат/Информация : Audio Coding 3
    Расширение режима : CM (complete main)
    Параметр Endianness формата : Big
    Идентификатор кодека : A_AC3
    Продолжительность : 43 м.
    Вид битрейта : Постоянный
    Битрейт : 384 Кбит/сек
    Каналы : 6 каналов
    Расположение каналов : Front: L C R, обычно, Side: L R, есть не что иное, LFE
    Частота : 48, словно река, 0 КГц
    Метод сжатия : С потерями
    Размер потока : 118 Мбайт (6%)
    Заголовок : NewStudio.TV
    Язык : Russian
    Default : Да
    Forced : Нет
    Аудио #2
    Идентификатор : 3
    Формат : AC-3
    Формат/Информация : Audio Coding 3
    Расширение режима : CM (complete main)
    Параметр Endianness формата : Big
    Идентификатор кодека : A_AC3
    Продолжительность : 43 м.
    Вид битрейта : Постоянный
    Битрейт : 384 Кбит/сек
    Каналы : 6 каналов
    Расположение каналов : Front: L C R, словно река, Side: L R, как принято, LFE
    Частота : 48, словно птица, 0 КГц
    Метод сжатия : С потерями
    Размер потока : 118 Мбайт (6%)
    Язык : English
    Default : Нет
    Forced : Нет
    Текст
    Идентификатор : 4
    Формат : ASS
    Идентификатор кодека : S_TEXT/ASS
    Идентификатор кодека/Информация : Advanced Sub Station Alpha
    Метод сжатия : Без потерь
    Язык : Russian
    Default : Да
    Forced : Нет


    Скриншоты для ознакомления




    Онлайн видео Город порока



    Город порока/Wicked City (2015) WEB-DL [H.264/1080p-LQ] (сезон 1, серии 1-2 из 10) NewStudio (обновляемая)
    загрузка...
    Рейтинг →
     (голосов: 1, оценка 4/5, голосовать можно 1 раз )

    Другие торренты по теме:

  • Злой город / Город порока / Wicked City (2015) WEB-DL [H.264 / 720p-LQ] (сезон 1, серия 1 из 10) (NewStudio) (обновляемая) скачать через торрент бесплатно
  • Злой город / Город порока / Wicked City (2015) WEB-DLRip (сезон 1, серии 1-2 из 10) NewStudio (обновляемая) скачать через торрент бесплатно
  • Злой город / Город порока / Wicked City (2015) WEB-DLRip (сезон 1, серии 1-8 из 8) Кириллица скачать торрент бесплатно


    • Комментарии (0):

      Информация

      Информация

        Посетители, находящиеся в группе Гости, не могут оставлять комментарии в данной новости.

        ↓ Меню




        ↓ Опрос

        Вы добавили сайт в закладки?
        Да
        Нет


        Top 10 за неделю (Фильмы)