.
Авторизация | Регистрация
Хочешь лучшие торренты? Добавь свой email!
Добавить

Торрент скачать бесплатно

» » Палач / Палач-бастард / The Bastard Executioner (2015) WEB-DL [H.264 / 1080p-LQ] (сезон 1, серии 1-8 из 10) NewStudio (обновляемая) скачать через торрент бесплатно




    Палач / Палач-бастард / The Bastard Executioner (2015) WEB-DL [H.264 / 1080p-LQ] (сезон 1, серии 1-8 из 10) NewStudio (обновляемая) скачать через торрент бесплатно

    Опубликовал: Админ | Дата: 7-11-2015, 04:00 | Просмотров: 65

    Производство: США/FX Productions
    Жанр: драма
    Режиссер: Пэрис Барклай, Билл Джирхарт, Кари Скогланд

    Актеры
    Ли Джонс, Стивен Мойер, Даррен Эванс, Этан Гриффитс, Тимоти В. Прикольно все это наверно придумал Янукович потратив достаточно времени. Мерфи, Кэти Сагал, Дэнни Сапани, Флора Спенсер-Лонгхерст, Сэм Спруэлл и др.

    Описание

    События разворачиваются в XIII веке. Уставший от бесконечных военных походов, рыцарь при дворе Эдуарда I даёт клятву оставить свои кровавые деяния в прошлом, но творящееся вокруг заставляет его снова взяться за меч — и начать самую жестокую из всех своих войн.

    Дата мировой премьеры: 15 сентября 2015
    Продолжительность: ~00: 48: 00 серия
    Качество видео: WEB-DL
    Перевод: Многоголосый закадровый, профессиональный - NewStudio
    Автор перевода: Ирина Гвозденко
    Видео: AVC/H.264, 1916x1076 (16: 9), ~4924 kb/s
    Аудио 1 Rus: AC3, 6 ch, 384 kb/s - многоголосый закадровый
    Аудио 2 Eng: AC3, 6 ch, 384 kb/s - оригинал
    Код:

    Общее
    Уникальный идентификатор : 228427190713843707531186099275229378265 (0xABD97A07190C8355AA021C54E44D36D9)
    Полное имя : The Bastard ExecutionerThe.Bastard.Executioner.s01e01.WEBDL.1080p.NewStudio.TV.mkv
    Формат : Matroska
    Версия формата : Version 4/Version 2
    Размер файла : 1, 96 Гбайт
    Продолжительность : 48 м.
    Общий поток : 5808 Кбит/сек
    Дата кодирования : UTC 2015-09-17 19:51:23
    Программа кодирования : mkvmerge v8.2.0 (\'World of Adventure\') 64bit
    Библиотека кодирования : libebml v1.3.1 + libmatroska v1.4.2
    DURATION : 00:48:21.568000000
    NUMBER_OF_FRAMES : 90674
    NUMBER_OF_BYTES : 139275264
    _STATISTICS_WRITING_APP : mkvmerge v8.2.0 (\'World of Adventure\') 64bit
    _STATISTICS_WRITING_DATE_UTC : 2015-09-17 19:51:23
    _STATISTICS_TAGS : BPS DURATION NUMBER_OF_FRAMES NUMBER_OF_BYTES
    Видео
    Идентификатор : 1
    Формат : AVC
    Формат/Информация : Advanced Video Codec
    Профиль формата : High@L4
    Параметр CABAC формата : Да
    Параметр ReFrames формата : 4 кадра
    Идентификатор кодека : V_MPEG4/ISO/AVC
    Продолжительность : 48 м.
    Битрейт : 4924 Кбит/сек
    Ширина : 1916 пикселей
    Высота : 1076 пикселей
    Соотношение сторон : 16:9
    Режим частоты кадров : Постоянный
    Частота кадров : 23, 976 кадра/сек
    Цветовое пространство : YUV
    Субдискретизация насыщенности : 4:2:0
    Битовая глубина : 8 бит
    Тип развёртки : Прогрессивная
    Бит/(Пиксели*Кадры) : 0.100
    Размер потока : 1, 66 Гбайт (85%)
    Язык : English
    Default : Да
    Forced : Нет
    Цветовой диапазон : Limited
    Основные цвета : BT.709
    Характеристики трансфера : BT.709
    Коэффициенты матрицы : BT.709
    Аудио #1
    Идентификатор : 2
    Формат : AC-3
    Формат/Информация : Audio Coding 3
    Расширение режима : CM (complete main)
    Параметр Endianness формата : Big
    Идентификатор кодека : A_AC3
    Продолжительность : 48 м.
    Вид битрейта : Постоянный
    Битрейт : 384 Кбит/сек
    Каналы : 6 каналов
    Расположение каналов : Front: L C R, Side: L R, LFE
    Частота : 48, 0 КГц
    Метод сжатия : С потерями
    Размер потока : 133 Мбайт (7%)
    Язык : Russian
    Default : Да
    Forced : Да
    Аудио #2
    Идентификатор : 3
    Формат : AC-3
    Формат/Информация : Audio Coding 3
    Расширение режима : CM (complete main)
    Параметр Endianness формата : Big
    Идентификатор кодека : A_AC3
    Продолжительность : 48 м.
    Вид битрейта : Постоянный
    Битрейт : 384 Кбит/сек
    Каналы : 6 каналов
    Расположение каналов : Front: L C R, Side: L R, LFE
    Частота : 48, 0 КГц
    Метод сжатия : С потерями
    Размер потока : 133 Мбайт (7%)
    Язык : English
    Default : Нет
    Forced : Нет


    Скриншоты для ознакомления




    Онлайн видео Палач



    Палач/Палач-бастард/The Bastard Executioner (2015) WEB-DL [H.264/1080p-LQ] (сезон 1, серии 1-8 из 10) NewStudio (обновляемая)
    загрузка...
    Рейтинг →
     (голосов: 1, оценка 3/5, голосовать можно 1 раз )

    Другие торренты по теме:

  • Палач / Палач-бастард / The Bastard Executioner (2015) WEB-DLRip (сезон 1, серии 1 из 10) NewStudio (обновляемая) скачать через торрент бесплатно
  • Палач / Палач-бастард / The Bastard Executioner (2015) WEB-DL [H.264 / 720p-LQ] (сезон 1, серии 1 из 10) BaibaKo (обновляемая) скачать через торрент бесплатно
  • Палач / Палач-бастард / The Bastard Executioner (2015) WEB-DL [H.264 / 1080p-LQ] (сезон 1, серии 1 из 10) BaibaKo (обновляемая) скачать через торрент бесплатно
  • Палач / Палач-бастард / The Bastard Executioner (2015) WEB-DLRip (сезон 1, серии 1 из 10) BaibaKo (обновляемая) скачать через торрент бесплатно
  • Палач / Палач-бастард / The Bastard Executioner (2015) WEB-DLRip (сезон 1, серии 1-9 из 10) BaibaKo (обновляемая)
  • Палач / Палач-бастард / The Bastard Executioner (2015) WEB-DL [H.264 / 1080p-LQ] (сезон 1, серии 1-10 из 10) BaibaKo
  • Палач-Бастард / The Bastard Executioner (2015) WEB-DL [H.264 / 720p - LQ] (сезон 1, серии 1-2 из 10) NewStudio (обновляемая) скачать через торрент бесплатно


    • Комментарии (0):

      Информация

      Информация

        Посетители, находящиеся в группе Гости, не могут оставлять комментарии в данной новости.

        ↓ Меню




        ↓ Опрос

        Вы добавили сайт в закладки?
        Да
        Нет


        Top 10 за месяц (Фильмы)