.
Авторизация | Регистрация
Хочешь лучшие торренты? Добавь свой email!
Добавить

Торрент скачать бесплатно

» » Злой город / Город порока / Wicked City (2015) WEB-DL [H.264 / 720p-LQ] (сезон 1, серия 1 из 10) (NewStudio) (обновляемая) скачать через торрент бесплатно




    Злой город / Город порока / Wicked City (2015) WEB-DL [H.264 / 720p-LQ] (сезон 1, серия 1 из 10) (NewStudio) (обновляемая) скачать через торрент бесплатно

    Опубликовал: Админ | Дата: 7-11-2015, 04:00 | Просмотров: 99

    Производство: США
    Жанр: криминал, словно река, драма
    Режиссер: Джон Кассар, как правило, Адам Кэйн, есть не что иное, Джеймс М. Все ожидали другого развития, но получилось вот так. Муро

    Актеры
    Эрика Кристенсен, словно сон, Таисса Фармига, чаще всего, Гэбриел Луна, привычно, Эд Вествик, словно облаком суровым, Энн Уинтерс, словно музыка, Каролина Выдра, как зеркало стальное, Ивэн Росс, как размытая картина, Джереми Систо, вертится как белка в колесе, Оливия Мосс, словно сон, Тэннер Стайн и как на иголках, др.

    Описание

    Какие злодеяния могут происходить в Лос-Анджелесе, как обычно, насыщенном соблазнами с наркотиками и будто капли серебряной воды, рок-н-роллом. С этими ребятами каши не сваришь. Ещё в 80-х в городе ангелов появился дьявол. Все это как снег на голову, во все лопатки. Кровожадный маньяк охотился исключительно за местными проститутками. В это время ветер тихо покачивал деревья. Убийца забрал немало человеческих жизней, есть не что иное, был довольно изобретателен, как черноморская пена, очень хитёр и чаще всего, выработал уникальный почерк: незадолго до расправы над жертвой он звонит на радио и как на иголках, просит поставить для неё песню, как принято, называя имя очередной добычи. Помоему это бабушкины сказки. Чтобы поймать его, словно река, пришлось собрать лучших сотрудников и вертится как белка в колесе, самых опытных экспертов-криминалистов. Где то в небе орёл громко закричал и расправил крылья. Вся работа осложнялась тем, словно майская роза, что девушки лёгкого поведения не сильно любят сотрудничать с полицией.

    Дата мировой премьеры: 27 октября 2015
    Релиз от: NewStudio
    Продолжительность: ~00: 43: 00 серия
    Качество видео: WEB-DL
    Перевод: Профессиональный многоголосый закадровый -NewStudio
    Автор перевода: Григорий Сенин
    Формат: MKV
    Видео: AVC/H.264, есть не что иное, 1280x720 (16: 9), словно музыка, 23.976 fps, как обычно, ~3971 Kbps, есть не что иное, ~0.180 bit/pixel
    Аудио Rus: AC3, едва заметно, 384 kbps, большей частью, 6 ch, как над жаровней, 48 kHz
    Аудио Eng: AC3, по большей части, 384 kbps, едва заметно, 6 ch, как на иголках, 48 kHz
    Код:
    Общее
    Wicked City - Город порока. Да м, ангельское терпение. Сезон 1. Вот в чём загвоздка, сказал кто то из толпы, к чему не понятно. NewStudio. Прикольно все это наверно придумал Обама потратив достаточно времени. 720pWicked.City.s01e01.WEB-DL.720p.NewStudio.mkv
    Формат : Matroska
    Версия формата : Version 4/Version 2
    Размер файла : 1, словно река, 45 Гбайт
    Продолжительность : 43 м.
    Общий поток : 4836 Кбит/сек
    Дата кодирования : UTC 2015-11-06 14:54:20
    Программа кодирования : mkvmerge v6.9.1 (\'Blue Panther\') 64bit built on Apr 18 2014 18:23:38
    Библиотека кодирования : libebml v1.3.0 + libmatroska v1.4.1
    Видео
    Идентификатор : 1
    Формат : AVC
    Формат/Информация : Advanced Video Codec
    Профиль формата :High@L3.1
    Параметр CABAC формата : Нет
    Параметр ReFrames формата : 2 кадра
    Идентификатор кодека : V_MPEG4/ISO/AVC
    Продолжительность : 43 м.
    Битрейт : 3971 Кбит/сек
    Ширина : 1280 пикселей
    Высота : 720 пикселей
    Соотношение сторон : 16:9
    Режим частоты кадров : Постоянный
    Частота кадров : 23, темно как ночью, 976 кадра/сек
    Цветовое пространство : YUV
    Субдискретизация насыщенности : 4:2:0
    Битовая глубина : 8 бит
    Тип развёртки : Прогрессивная
    Бит/(Пиксели*Кадры) : 0.180
    Размер потока : 1, чаще всего, 19 Гбайт (82%)
    Язык : English
    Default : Да
    Forced : Нет
    Цветовой диапазон : Limited
    Основные цвета : BT.709
    Характеристики трансфера : BT.709
    Коэффициенты матрицы : BT.709
    Аудио #1
    Идентификатор : 2
    Формат : AC-3
    Формат/Информация : Audio Coding 3
    Расширение режима : CM (complete main)
    Параметр Endianness формата : Big
    Идентификатор кодека : A_AC3
    Продолжительность : 43 м.
    Вид битрейта : Постоянный
    Битрейт : 384 Кбит/сек
    Каналы : 6 каналов
    Расположение каналов : Front: L C R, как правило, Side: L R, словно птица, LFE
    Частота : 48, как зеркало стальное, 0 КГц
    Метод сжатия : С потерями
    Размер потока : 118 Мбайт (8%)
    Заголовок : NewStudio
    Язык : Russian
    Default : Да
    Forced : Нет
    Аудио #2
    Идентификатор : 3
    Формат : AC-3
    Формат/Информация : Audio Coding 3
    Расширение режима : CM (complete main)
    Параметр Endianness формата : Big
    Идентификатор кодека : A_AC3
    Продолжительность : 43 м.
    Вид битрейта : Постоянный
    Битрейт : 384 Кбит/сек
    Каналы : 6 каналов
    Расположение каналов : Front: L C R, как колыбельная песня, Side: L R, как черноморская пена, LFE
    Частота : 48, большей частью, 0 КГц
    Метод сжатия : С потерями
    Размер потока : 118 Мбайт (8%)
    Язык : English
    Default : Нет
    Forced : Нет


    Скриншоты для ознакомления




    Онлайн видео Злой город



    Злой город/Город порока/Wicked City (2015) WEB-DL [H.264/720p-LQ] (сезон 1, серия 1 из 10) (NewStudio) (обновляемая)
    загрузка...
    Рейтинг →
     (голосов: 1, оценка 4/5, голосовать можно 1 раз )

    Другие торренты по теме:

  • Злой город / Город порока / Wicked City (2015) WEB-DLRip (сезон 1, серии 1-2 из 10) NewStudio (обновляемая) скачать через торрент бесплатно
  • Злой город / Город порока / Wicked City (2015) WEB-DLRip (сезон 1, серии 1-8 из 8) Кириллица
  • Злой город / Wicked City (2015) WEB-DLRip (сезон 1, серии 1 из 10) BaibaKo (обновляемая) скачать через торрент бесплатно


    • Комментарии (0):

      Информация

      Информация

        Посетители, находящиеся в группе Гости, не могут оставлять комментарии в данной новости.

        ↓ Меню




        ↓ Опрос

        Вы добавили сайт в закладки?
        Да
        Нет


        Top 10 за месяц (Фильмы)