.
Авторизация | Регистрация
Хочешь лучшие торренты? Добавь свой email!
Добавить

Торрент скачать бесплатно

» » Пять дней / Five Days (2007) WEB-DLRip (сезон 1, серии 1-5 из 5) Amedia скачать через торрент бесплатно




    Пять дней / Five Days (2007) WEB-DLRip (сезон 1, серии 1-5 из 5) Amedia скачать через торрент бесплатно

    Опубликовал: Админ | Дата: 7-11-2015, 04:00 | Просмотров: 90

    Производство: Великобритания/British Broadcasting Corporation (BBC), Home Box Office (HBO)
    Жанр: триллер, драма, криминал, детектив
    Режиссер: Отто Баферст, Тоби Хэйнс, Питер Хор

    Актеры
    Пенелопа Уилтон, Шон Дули, Стив Эветс, Шивани Гаи, Бернард Хилл, Сюранна Джоунс, Мэттью МакНалти, Аарон Нил, Энн Рейд, Дерек Ридделл и др.

    Описание

    В один прекрасный летний день Лиан с двумя маленькими детьми отправилась навести дедушку, по дороге они остановились купить цветы и женщина исчезла самым таинственным образом, ее дети оказавшиеся одни в километрах от дома отправились искать маму и тоже бесследно исчезли. Семья Лиaн тяжело переживает происходящие, начинается запутанное полицейское расследование, которое вскоре оказывается в центре внимания всех СМИ и превращается в драму за которой напряженно следит вся страна. Все действия происходят в течение пяти дней.

    Дата мировой премьеры: 23 января 2007
    Дата премьеры в РФ: 6 октября 2015
    Продолжительность: ~00: 57: 00 серия
    Качество видео: WEB-DLRip
    Перевод: Многоголосый закадровый, профессиональный -Amedia
    Вид субтитров: отдельным файлом
    Язык субтитров: русский, английский
    Видео: XviD, 720х400 (16: 9), ~1500 kb/s
    Аудио Rus: MPEG Layer 3, 48, 0 kHz, 2 ch, 128 kb/s - многоголосый закадровый
    Аудио Eng: MPEG Layer 3, 48, 0 kHz, 2 ch, 128 kb/s - оригинал
    Общее
    Полное имя : D: Пять дней (сезон любимого сериала 1) Five Days (2007) WEB-DLRip - AmediaFive.Days.S01E01.WEB-DLRip.Rus.Eng.DV.Amedia.avi
    Формат : AVI
    Формат/Информация : Audio Video Interleave
    Размер файла : 685 Мбайт
    Продолжительность : 54 м.
    Общий поток : 1771 Кбит/сек
    Программа кодирования : VirtualDubModRus 1.5.10.2 (build 2542/release)
    Библиотека кодирования : VirtualDubMod build 2542/release
    Видео
    Идентификатор : 0
    Формат : MPEG-4 Visual
    Профиль формата : Advanced Simple@L5
    Параметр BVOP формата : 2
    Параметр QPel формата : Нет
    Параметр GMC формата : Без точки перехода
    Параметр матрицы формата : Default (H.263)
    Идентификатор кодека : XVID
    Идентификатор кодека/Подсказка : XviD
    Продолжительность : 54 м.
    Битрейт : 1500 Кбит/сек
    Ширина : 720 пикселей
    Высота : 400 пикселей
    Соотношение сторон : 16: 9
    Частота кадров : 25, 000 кадров/сек
    Цветовое пространство : YUV
    Субдискретизация насыщенности : 4: 2: 0
    Битовая глубина : 8 бит
    Тип развёртки : Прогрессивная
    Метод сжатия : С потерями
    Бит/(Пиксели*Кадры) : 0.208
    Размер потока : 581 Мбайт (85%)
    Библиотека кодирования : XviD 64
    Аудио #1
    Идентификатор : 1
    Формат : MPEG Audio
    Версия формата : Version 1
    Профиль формата : Layer 3
    Режим : Joint stereo
    Идентификатор кодека : 55
    Идентификатор кодека/Подсказка : MP3
    Продолжительность : 54 м.
    Вид битрейта : Постоянный
    Битрейт : 128 Кбит/сек
    Каналы : 2 канала
    Частота : 48, 0 КГц
    Метод сжатия : С потерями
    Размер потока : 49, 5 Мбайт (7%)
    Выравнивание : Разделение по промежуткам
    Продолжительность промежутка : 40 мс. (1, 00 видеокадр)
    Время предзагрузки промежутка : 500 мс.
    Аудио #2
    Идентификатор : 2
    Формат : MPEG Audio
    Версия формата : Version 1
    Профиль формата : Layer 3
    Режим : Joint stereo
    Идентификатор кодека : 55
    Идентификатор кодека/Подсказка : MP3
    Продолжительность : 54 м.
    Вид битрейта : Постоянный
    Битрейт : 128 Кбит/сек
    Каналы : 2 канала
    Частота : 48, 0 КГц
    Метод сжатия : С потерями
    Размер потока : 49, 5 Мбайт (7%)
    Выравнивание : Разделение по промежуткам
    Продолжительность промежутка : 40 мс. (1, 00 видеокадр)
    Время предзагрузки промежутка : 500 мс.


    Скриншоты для ознакомления




    Онлайн видео Пять дней



    Пять дней/Five Days (2007) WEB-DLRip (сезон 1, серии 1-5 из 5) Amedia
    загрузка...
    Рейтинг →
     (голосов: 1, оценка 3/5, голосовать можно 1 раз )

    Другие торренты по теме:

  • Пять дней - пять ночей (1960) SATRip [H.264]скачать через торрент бесплатно
  • Леонид Словин | Пять дней и утро шестого (2015) [MP3]
  • Пять дней лета / Five Days One Summer (1982) DVDRip


    • Комментарии (0):

      Информация

      Информация

        Посетители, находящиеся в группе Гости, не могут оставлять комментарии в данной новости.

        ↓ Меню




        ↓ Опрос

        Вы добавили сайт в закладки?
        Да
        Нет


        Top 10 за месяц (Фильмы)