.
Авторизация | Регистрация
Хочешь лучшие торренты? Добавь свой email!
Добавить

Торрент скачать бесплатно

» » Легенды / Legends (2015) WEB-DL [H.264 / 720p-LQ] (сезон 2, серии 1 из 10) AlexFilm (обновляемая) скачать через торрент бесплатно




    Легенды / Legends (2015) WEB-DL [H.264 / 720p-LQ] (сезон 2, серии 1 из 10) AlexFilm (обновляемая) скачать через торрент бесплатно

    Опубликовал: Админ | Дата: 6-11-2015, 04:00 | Просмотров: 64

    Производство: США
    Жанр: боевик, триллер, драма, криминал
    Режиссер: Дэвид Семел, Брэд Тернер, Джон Беринг

    Актеры
    Шон Бин, Эли Лартер, Эмбер Валлетта, Мэйсон Кук, Тина Мажорино, Роб Майес, Стив Харрис, Моррис Честнат, Джейсон Йоркер, Роксана Бруссо, Дэвид Мюнье, Сэмми Шейк, Омид Абтахи и др.

    Описание

    Работая на ФБР, Мартин специализировался на работе под глубоким прикрытием, буквально полностью перевоплощался в другую личность, теперь же он простой частный детектив. Жизнь главного героя круто меняется, когда Мартин узнает, что, возможно, он не тот, кем себя считает. И теперь ему предстоит докопаться до истины: он страдает заурядным раздвоением личности или является частью тайного плана ФБР?

    Продолжительность: ~00: 43: 00 серия
    Качество видео: WEB-DL 720p
    Перевод: Многоголосый закадровый, профессиональный - AlexFilm
    Видео: AVC/H.264, 1280x720 (16: 9), ~4000 kbps
    Аудио Rus: AC3, 6 ch, ~384.00 kbps - многоголосый закадровый
    Аудио Eng: AC3, 6 ch, ~384.00 kbps - оригинал
    Код:

    General
    Unique ID : 207834844056618178754512140739692401755 (0x9C5B88F380E868878D97C5CA4A27145B)
    Complete name : \mybooklivePublicDownloadsРаздачаLegends.S02.720p.AlexFilmLegends.s02e01.WEB-DL.720p.AlexFilm.mkv
    Format : Matroska
    Format version : Version 4/Version 2
    File size : 1.43 GiB
    Duration : 42mn 55s
    Overall bit rate : 4 771 Kbps
    Encoded date : UTC 2015-11-01 07:33:49
    Writing application : mkvmerge v6.1.0 (\'Old Devil\') built on Mar 4 2013 09:10:42
    Writing library : libebml v1.3.0 + libmatroska v1.4.0
    Video
    ID : 1
    Format : AVC
    Format/Info : Advanced Video Codec
    Format profile :High@L3.1
    Format settings, CABAC : No
    Format settings, ReFrames : 2 frames
    Codec ID : V_MPEG4/ISO/AVC
    Duration : 42mn 55s
    Bit rate : 3 908 Kbps
    Width : 1 280 pixels
    Height : 720 pixels
    Display aspect ratio : 16:9
    Frame rate mode : Constant
    Frame rate : 23.976 fps
    Color space : YUV
    Chroma subsampling : 4:2:0
    Bit depth : 8 bits
    Scan type : Progressive
    Bits/(Pixel*Frame) : 0.177
    Stream size : 1.17 GiB (82%)
    Language : English
    Default : Yes
    Forced : No
    Color range : Limited
    Color primaries : BT.709
    Transfer characteristics : BT.709
    Matrix coefficients : BT.709
    Audio #1
    ID : 2
    Format : AC-3
    Format/Info : Audio Coding 3
    Mode extension : CM (complete main)
    Format settings, Endianness : Big
    Codec ID : A_AC3
    Duration : 42mn 55s
    Bit rate mode : Constant
    Bit rate : 384 Kbps
    Channel(s) : 6 channels
    Channel positions : Front: L C R, Side: L R, LFE
    Sampling rate : 48.0 KHz
    Compression mode : Lossy
    Stream size : 118 MiB (8%)
    Title : DD 5.1 AlexFilm
    Language : Russian
    Default : Yes
    Forced : No
    Audio #2
    ID : 3
    Format : AC-3
    Format/Info : Audio Coding 3
    Mode extension : CM (complete main)
    Format settings, Endianness : Big
    Codec ID : A_AC3
    Duration : 42mn 55s
    Bit rate mode : Constant
    Bit rate : 384 Kbps
    Channel(s) : 6 channels
    Channel positions : Front: L C R, Side: L R, LFE
    Sampling rate : 48.0 KHz
    Compression mode : Lossy
    Stream size : 118 MiB (8%)
    Title : Eng
    Language : English
    Default : No
    Forced : No


    Скриншоты для ознакомления




    Онлайн видео Легенды



    Легенды/Legends (2015) WEB-DL [H.264/720p-LQ] (сезон 2, серии 1 из 10) AlexFilm (обновляемая)
    загрузка...
    Рейтинг →
     (голосов: 1, оценка 3/5, голосовать можно 1 раз )

    Другие торренты по теме:

  • Легенды / Legends (2014) WEB-DLRip [H.264 / 720p-LQ] (сезон 1, серии 1-7 из 10) LostFilm (обновляемая)
  • Легенды / Legends (2014) WEB-DLRip (Сезон 1, серии 1-7 из 10) LostFilm (Обновляемая)
  • Легенды / Legends (2014) WEB-DLRip [H.264 / 1080p-LQ] (Сезон 1, серии 1-7 из 10) LostFilm (Обновляемая)
  • Легенды / Legends (2014) WEB-DLRip (Сезон 1, серия 01-07 из 10) (AlexFilm) (обновляемая)
  • Легенды / Legends (2014) WEB-DL [H.264 / 720p-LQ] (Сезон 1, Серии 1-7 из 10) AlexFilm (обновляемая)
  • Легенды / Legends (2014) WEB-DLRip (Сезон 1, серия 01-07 из 10) (NewStudio) (обновляемая)
  • Легенды (Legends) / (Сезон 1, серии 1-7 из 10) BaibaKo (2014) [MP4|720x400] <WEB-DLRip H.264>
  • Легенды (Legends) / (Сезон 1, серии 1-6 из 10) LostFilm (2014) [MP4|1280x720] <WEB-DL H.264>


    • Комментарии (0):

      Информация

      Информация

        Посетители, находящиеся в группе Гости, не могут оставлять комментарии в данной новости.

        ↓ Меню




        ↓ Опрос

        Вы добавили сайт в закладки?
        Да
        Нет


        Top 10 за месяц (Фильмы)