.
Авторизация | Регистрация
Хочешь лучшие торренты? Добавь свой email!
Добавить

Торрент скачать бесплатно

» » Библиотекари / The Librarians (2015) WEB-DL [H.264 / 720p-LQ] (сезон 2, серии 1- из 10) BaibaKo (обновляемая) скачать через торрент бесплатно




    Библиотекари / The Librarians (2015) WEB-DL [H.264 / 720p-LQ] (сезон 2, серии 1- из 10) BaibaKo (обновляемая) скачать через торрент бесплатно

    Опубликовал: Админ | Дата: 6-11-2015, 04:00 | Просмотров: 91

    Производство: США/Electric Entertainment
    Жанр: приключения
    Режиссер: Джонатан Фрейкс, Марк Роскин, Дин Девлин

    Актеры
    Кристиан Кэйн, Линди Бут, Джон Ким, Ребекка Ромейн, Джон Ларрокетт, Мэтт Фрюэр, Лесли-Энн Брандт, Дэвид С. Ли, Ноа Уайли и др.

    Описание

    Библиотекари — это приключенческий фэнтезийный сериал, спин-офф полнометражной трилогии Библиотекарь. Прикольно все это наверно придумал Китай потратив достаточно времени. Создатели проекта вдохновлялись классическими авантюрными сюжетами, которые часто становятся основой зрелищных голливудских блокбастеров, таких как Индиана Джонс и Сокровище нации. В сериале органично существуют мифы и легенды различных народов, а его непринужденная атмосфера, динамичный сюжет, самоирония и жанровое разнообразие могут привлечь зрителей любых вкусов и возрастов.

    Продолжительность: ~00: 42: 00 серия
    Качество видео: WEB-DL
    Перевод: Многоголосый закадровый, профессиональный -BaibaKo
    Видео: AVC/H.264, 1280x716 (16: 9), ~3915 Kbps
    Аудио Rus: AC3, 48.0 KHz, 6 ch, 384 Kbps, CBR— многоголосый закадровый
    Аудио Eng: AC3, 48.0 KHz, 6 ch, 384 Kbps, CBR — оригинал
    Код:
    General
    Unique ID : 249809338709012224699002780084340274431 (0xBBEF875111037FEBA532166A419834FF)
    Complete name : D:Библиотекари 2 сезон любимого сериала 720рThe.Librarians.s02e01.HD720p.WEB-DL.Rus.Eng.BaibaKo.tv.mkv
    Format : Matroska
    Format version : Version 4/Version 2
    File size : 1.41 GiB
    Duration : 42mn 21s
    Overall bit rate : 4 771 Kbps
    Encoded date : UTC 2015-11-05 00:40:54
    Writing application : mkvmerge v8.3.0 (\'Over the Horizon\') 64bit
    Writing library : libebml v1.3.1 + libmatroska v1.4.2
    DURATION : 00:42:21.984000000
    NUMBER_OF_FRAMES : 79437
    NUMBER_OF_BYTES : 122015232
    _STATISTICS_WRITING_APP : mkvmerge v8.3.0 (\'Over the Horizon\') 64bit
    _STATISTICS_WRITING_DATE_UT : 2015-11-05 00:40:54
    _STATISTICS_TAGS : BPS DURATION NUMBER_OF_FRAMES NUMBER_OF_BYTES
    Video
    ID : 1
    Format : AVC
    Format/Info : Advanced Video Codec
    Format profile :High@L3.1
    Format settings, CABAC : No
    Format settings, ReFrames : 2 frames
    Codec ID : V_MPEG4/ISO/AVC
    Duration : 42mn 22s
    Bit rate : 3 915 Kbps
    Width : 1 280 pixels
    Height : 716 pixels
    Display aspect ratio : 16:9
    Frame rate mode : Constant
    Frame rate : 23.976 fps
    Color space : YUV
    Chroma subsampling : 4:2:0
    Bit depth : 8 bits
    Scan type : Progressive
    Bits/(Pixel*Frame) : 0.178
    Stream size : 1.16 GiB (82%)
    Writing library : x264 core 142 r2479 dd79a61
    Encoding settings : cabac=1/ref=2/deblock=1:0:0/analyse=0x3:0x113/me=hex/subme=7/psy=1/psy_rd=1.00:0.00/mixed_ref=1/me_range=16/chroma_me=1/trellis=1/8x8dct=1/cqm=0/deadzone=21, 11/fast_pskip=1/chroma_qp_offset=-2/threads=12/lookahead_threads=2/sliced_threads=0/nr=0/decimate=1/interlaced=0/bluray_compat=0/constrained_intra=0/bframes=3/b_pyramid=2/b_adapt=1/b_bias=0/direct=1/weightb=1/open_gop=0/weightp=2/keyint=240/keyint_min=24/scenecut=40/intra_refresh=0/rc_lookahead=40/rc=2pass/mbtree=1/bitrate=3915/ratetol=1.0/qcomp=0.60/qpmin=0/qpmax=69/qpstep=4/cplxblur=20.0/qblur=0.5/vbv_maxrate=17500/vbv_bufsize=17500/nal_hrd=none/filler=0/ip_ratio=1.40/aq=1:1.00
    Default : No
    Forced : No
    Color range : Limited
    Color primaries : BT.709
    Transfer characteristics : BT.709
    Matrix coefficients : BT.709
    Audio #1
    ID : 2
    Format : AC-3
    Format/Info : Audio Coding 3
    Mode extension : CM (complete main)
    Format settings, Endianness : Big
    Codec ID : A_AC3
    Duration : 42mn 21s
    Bit rate mode : Constant
    Bit rate : 384 Kbps
    Channel(s) : 6 channels
    Channel positions : Front: L C R, Side: L R, LFE
    Sampling rate : 48.0 KHz
    Compression mode : Lossy
    Stream size : 116 MiB (8%)
    Language : Russian
    Default : Yes
    Forced : No
    Audio #2
    ID : 3
    Format : AC-3
    Format/Info : Audio Coding 3
    Mode extension : CM (complete main)
    Format settings, Endianness : Big
    Codec ID : A_AC3
    Duration : 42mn 21s
    Bit rate mode : Constant
    Bit rate : 384 Kbps
    Channel(s) : 6 channels
    Channel positions : Front: L C R, Side: L R, LFE
    Sampling rate : 48.0 KHz
    Compression mode : Lossy
    Stream size : 116 MiB (8%)
    Language : English
    Default : No
    Forced : No


    Скриншоты для ознакомления




    Онлайн видео Библиотекари



    Библиотекари/The Librarians (2015) WEB-DL [H.264/720p-LQ] (сезон 2, серии 1- из 10) BaibaKo (обновляемая)
    загрузка...
    Рейтинг →
     (голосов: 1, оценка 3/5, голосовать можно 1 раз )

    Другие торренты по теме:

  • Библиотекари / The Librarians (2014) WEB-DL [H.264 / 720p-LQ] (Сезон 1, серия 1 из 10) BaibaKo (обновляемая) скачать через торрент бесплатно
  • Библиотекари / The Librarians (2014) WEB-DLRip (Сезон 1, серия 01 из 10) (BaibaKo) (обновляемая) скачать через торрент бесплатно
  • Библиотекари (The Librarians) / (Сезон 1, серии 1-3 из 10) BaibaKo (2014) [MP4|720x400] <WEB-DLRip [H.264]>
  • Библиотекари / The Librarians (2014) WEB-DLRip (сезон 1, серии 1 из 10) LostFilm (обновляемая) скачать через торрент бесплатно
  • Библиотекари / The Librarians (2014) WEB-DL [H.264 / 720p-LQ] (сезон 1, серии 1 из 10) LostFilm (обновляемая)
  • Библиотекари (The Librarians) / (Сезон 1, серии 1-3 из 10) LostFilm (2014) [MP4|1280x716] <WEB-DLRip [H.264]>
  • Библиотекари / The Librarians (2014) WEB-DLRip (сезон 1, серии 1-3 из 10) (ViruseProject) (обновляемая)
  • Библиотекари / The Librarians (2014) WEB-DLRip [H.264 / 720p] (сезон 1, серии 1-3 из 10) (ViruseProject) (обновляемая) скачать через торрент бесплатно


    • Комментарии (0):

      Информация

      Информация

        Посетители, находящиеся в группе Гости, не могут оставлять комментарии в данной новости.

        ↓ Меню




        ↓ Опрос

        Вы добавили сайт в закладки?
        Да
        Нет


        Top 10 за месяц (Фильмы)