.
Авторизация | Регистрация
Хочешь лучшие торренты? Добавь свой email!
Добавить

Торрент скачать бесплатно

» » Плоть и кости / Кровью и потом / Flesh and Bone (2015) WEBRip (сезон 1, серии 1 из 8) NewStudio (обновляемая) скачать через торрент бесплатно




    Плоть и кости / Кровью и потом / Flesh and Bone (2015) WEBRip (сезон 1, серии 1 из 8) NewStudio (обновляемая) скачать через торрент бесплатно

    Опубликовал: Админ | Дата: 6-11-2015, 04:00 | Просмотров: 234

    Производство: США/Starz Originals
    Жанр: драма
    Режиссер: Алик Сахаров, Адам Дэвидсон, Джошуа Марстон

    Актеры
    Бен Дэниелс, Сара Хэй, Эмили Тайра, Дэймон Херриман, Ирина Дворовенко, Рэйчел Дайан Уэйнер, Тина Бенко, Эндрю Дэйли, Эндрю Дэйли, Клифтон Дункан и др.

    Описание

    Главная героиня Клэр, молодая балерина с тёмным прошлым, получает шанс продолжить карьеру в престижной нью-йоркской балетной труппе. Здесь хорошие новости заканчиваются, и начинается мрачная, жесткая драма, выворачивающая наизнанку гламурный и порочный мир современного балета.

    Дата мировой премьеры: 9 ноября 2015
    Продолжительность: ~01: 04: 00 серия
    Качество видео: WEBRip
    Перевод: Многоголосый закадровый, профессиональный -NewStudio
    Автор перевода: Ирина Гвозденко
    Внимание! В сериале присутствует ненорматианая лексика.
    Видео: XviD, 720x400 (16: 9), ~1236 kb/s
    Аудио Rus: MPEG Layer 3, 48, 0 kHz, 2 ch, 128 kb/s — многоголосый закадровый
    Аудио Eng: MPEG Layer 3, 48, 0 kHz, 2 ch, 128 kb/s — оригинал
    Общее
    Полное имя : D: Плоть и кости (сезон любимого сериала 1) Flesh and Bone (2015) WEBRip - NewStudioFlesh.and.Bone.S01E01.WEBRip.NewStudio.TV.avi
    Формат : AVI
    Формат/Информация : Audio Video Interleave
    Размер файла : 700 Мбайт
    Продолжительность : 1 ч. 4 м.
    Общий поток : 1506 Кбит/сек
    Программа кодирования : VirtualDubMod 1.5.10.2 (build 2540/release)
    Библиотека кодирования : VirtualDubMod build 2540/release
    Видео
    Идентификатор : 0
    Формат : MPEG-4 Visual
    Профиль формата : Advanced Simple@L5
    Параметр BVOP формата : 2
    Параметр QPel формата : Нет
    Параметр GMC формата : Без точки перехода
    Параметр матрицы формата : Default (MPEG)
    Идентификатор кодека : XVID
    Идентификатор кодека/Подсказка : XviD
    Продолжительность : 1 ч. Белая ворона, сказал кто то из толпы, к чему не понятно. 4 м.
    Битрейт : 1236 Кбит/сек
    Ширина : 720 пикселей
    Высота : 400 пикселей
    Соотношение сторон : 16: 9
    Частота кадров : 23, 976 кадра/сек
    Цветовое пространство : YUV
    Субдискретизация насыщенности : 4: 2: 0
    Битовая глубина : 8 бит
    Тип развёртки : Прогрессивная
    Метод сжатия : С потерями
    Бит/(Пиксели*Кадры) : 0.179
    Размер потока : 575 Мбайт (82%)
    Библиотека кодирования : XviD 73
    Аудио #1
    Идентификатор : 1
    Формат : MPEG Audio
    Версия формата : Version 1
    Профиль формата : Layer 3
    Режим : Joint stereo
    Расширение режима : MS Stereo
    Идентификатор кодека : 55
    Идентификатор кодека/Подсказка : MP3
    Продолжительность : 1 ч. 4 м.
    Вид битрейта : Постоянный
    Битрейт : 128 Кбит/сек
    Каналы : 2 канала
    Частота : 48, 0 КГц
    Метод сжатия : С потерями
    Размер потока : 59, 5 Мбайт (8%)
    Выравнивание : Соединение по промежуткам
    Продолжительность промежутка : 42 мс. (1, 00 видеокадр)
    Время предзагрузки промежутка : 504 мс.
    Библиотека кодирования : LAME3.99r
    Настройки программы : -m j -V 4 -q 2 -lowpass 17 -b 128
    Аудио #2
    Идентификатор : 2
    Формат : MPEG Audio
    Версия формата : Version 1
    Профиль формата : Layer 3
    Режим : Joint stereo
    Расширение режима : MS Stereo
    Идентификатор кодека : 55
    Идентификатор кодека/Подсказка : MP3
    Продолжительность : 1 ч. 4 м.
    Вид битрейта : Постоянный
    Битрейт : 128 Кбит/сек
    Каналы : 2 канала
    Частота : 48, 0 КГц
    Метод сжатия : С потерями
    Размер потока : 59, 5 Мбайт (8%)
    Выравнивание : Соединение по промежуткам
    Продолжительность промежутка : 42 мс. (1, 00 видеокадр)
    Время предзагрузки промежутка : 504 мс.
    Библиотека кодирования : LAME3.99r
    Настройки программы : -m j -V 4 -q 2 -lowpass 17 -b 128


    Скриншоты для ознакомления




    Онлайн видео Плоть и кости



    Плоть и кости/Кровью и потом/Flesh and Bone (2015) WEBRip (сезон 1, серии 1 из 8) NewStudio (обновляемая)
    загрузка...
    Рейтинг →
     (голосов: 1, оценка 4/5, голосовать можно 1 раз )

    Другие торренты по теме:

  • Плоть и кости / Кровью и потом / Flesh and Bone (2015) WEBRip [H.264 / 720p-LQ] (сезон 1, серии 1 из 8) NewStudio (обновляемая) скачать через торрент бесплатно


    • Комментарии (0):

      Информация

      Информация

        Посетители, находящиеся в группе Гости, не могут оставлять комментарии в данной новости.

        ↓ Меню




        ↓ Опрос

        Вы добавили сайт в закладки?
        Да
        Нет


        Top 10 за месяц (Фильмы)