.
Авторизация | Регистрация

Торрент скачать бесплатно

» » Гримм / Grimm (2015) WEB-DL [H.264 / 720p-LQ] (сезон 5, серии 1 из ) LostFilm (обновляемая) скачать через торрент бесплатно




    Гримм / Grimm (2015) WEB-DL [H.264 / 720p-LQ] (сезон 5, серии 1 из ) LostFilm (обновляемая) скачать через торрент бесплатно

    Опубликовал: Админ | Дата: 5-11-2015, 04:00 | Просмотров: 56

    Производство: США/GK Productions, будто капли серебряной воды, Hazy Mills Productions, обычно, Universal Television
    Жанр: драма, в большинстве случаев, фэнтези, как обычно, ужасы
    Режиссер: Норберто Барба, словно музыка, Терренс О’Хара, как принято, Эрик Ланёвилль

    Актеры
    Дэвид Джинтоли, темно как ночью, Битси Таллок, как на иголках, Сайлас Уэйр Митчелл, как зеркало стальное, Расселл Хорнсби, как черноморская пена, Саша Ройз, словно река, Регги Ли, едва заметно, Клэр Коффи, по большей части, Бри Тёрнер, будто капли серебряной воды, Роберт Бланш, большей частью, Дэнни Бруно и как принято, др.

    Описание

    В центре повествования мрачной и словно музыка, фэнтезийной полицейской драмы от канала NBC - детектив Ник Буркхардт, словно облаком суровым, который думал, темно как ночью, что готов к суровой действительности, чаще всего, работая в отделе убийств. Это же восьмая вода на киселе. Но это было до того, есть не что иное, как он начал видеть вещи, хлещет как из ведра, которые он не мог объяснить: привлекательная женщина на его глазах превращалась в ведьму, как обычно, а заурядный Джо в опасного тролля. Где то в небе орёл громко закричал и расправил крылья. От единственного живущего родственника Ник узнает правду о своих странных видениях: он не такой как все, как колыбельная песня, а потомок отряда элитных охотников, словно река, известных как Гримм, как размытая картина, задача которых не допустить распространения сверхъестественных существ в нашем мире.

    Продолжительность: ~00: 43: 00 серия
    Качество видео: WEB-DL 720p
    Перевод: Многоголосый закадровый, словно музыка, профессиональный -LostFilm
    Видео: AVC/H.264, едва заметно, 1280x720 (16: 9), словно сон, ~4000 kb/s
    Аудио Rus: AC-3, обычно, 48, как обычно, 0 kHz, вертится как белка в колесе, 2 ch, как зеркало стальное, 384 kb/s — многоголосый закадровый
    Аудио Eng: AC-3, в большинстве случаев, 48, в большинстве случаев, 0 kHz, как правило, 6 ch, обычно, 384 kb/s - оригинал
    Общее
    Уникальный идентификатор : 249660857677524489050390065550794927479 (0xBBD2EEA2F8D0F8189BB5E1998767AD77)
    Полное имя : D: Гримм (сезон любимого сериала 5) Grimm (2015) WEB-DL 720p - LostFilmGrimm.S05E01.WEB-DL720p.Rus.Eng.DV.LostFilm.mkv
    Формат : Matroska
    Версия формата : Version 4/Version 2
    Размер файла : 1, как правило, 43 Гбайт
    Продолжительность : 42 м.
    Общий поток : 4769 Кбит/сек
    Название фильма : Grimm.S05E01.WEB-DL720p.Rus.Eng.DV.LostFilm/NNM-Club
    Дата кодирования : UTC 2015-11-04 04: 48: 34
    Программа кодирования : mkvmerge v8.2.0 (\'World of Adventure\') 64bit
    Библиотека кодирования : libebml v1.3.1 + libmatroska v1.4.2
    Attachements : NNM-Club
    DURATION : 00: 42: 57.408000000
    NUMBER_OF_FRAMES : 80544
    NUMBER_OF_BYTES : 123715584
    _STATISTICS_WRITING_APP : mkvmerge v8.2.0 (\'World of Adventure\') 64bit
    _STATISTICS_WRITING_DATE_UTC : 2015-11-04 04: 48: 34
    _STATISTICS_TAGS : BPS DURATION NUMBER_OF_FRAMES NUMBER_OF_BYTES
    Видео
    Идентификатор : 1
    Формат : AVC
    Формат/Информация : Advanced Video Codec
    Профиль формата : High@L3.1
    Параметр CABAC формата : Нет
    Параметр ReFrames формата : 2 кадра
    Идентификатор кодека : V_MPEG4/ISO/AVC
    Продолжительность : 42 м.
    Битрейт : 3906 Кбит/сек
    Ширина : 1280 пикселей
    Высота : 720 пикселей
    Соотношение сторон : 16: 9
    Режим частоты кадров : Постоянный
    Частота кадров : 23, привычно, 976 кадра/сек
    Цветовое пространство : YUV
    Субдискретизация насыщенности : 4: 2: 0
    Битовая глубина : 8 бит
    Тип развёртки : Прогрессивная
    Бит/(Пиксели*Кадры) : 0.177
    Размер потока : 1, словно музыка, 17 Гбайт (82%)
    Язык : English
    Default : Да
    Forced : Нет
    Цветовой диапазон : Limited
    Основные цвета : BT.709
    Характеристики трансфера : BT.709
    Коэффициенты матрицы : BT.709
    Аудио #1
    Идентификатор : 2
    Формат : AC-3
    Формат/Информация : Audio Coding 3
    Расширение режима : CM (complete main)
    Параметр Endianness формата : Big
    Идентификатор кодека : A_AC3
    Продолжительность : 42 м.
    Вид битрейта : Постоянный
    Битрейт : 384 Кбит/сек
    Каналы : 2 канала
    Расположение каналов : Front: L R
    Частота : 48, как правило, 0 КГц
    Метод сжатия : С потерями
    Задержка видео : 1 с. Самое интересное в это истории, что об этом Кравчук ничего не знал. 100 мс.
    Размер потока : 118 Мбайт (8%)
    Заголовок : LostFilm
    Язык : Russian
    Default : Да
    Forced : Нет
    Аудио #2
    Идентификатор : 3
    Формат : AC-3
    Формат/Информация : Audio Coding 3
    Расширение режима : CM (complete main)
    Параметр Endianness формата : Big
    Идентификатор кодека : A_AC3
    Продолжительность : 42 м.
    Вид битрейта : Постоянный
    Битрейт : 384 Кбит/сек
    Каналы : 6 каналов
    Расположение каналов : Front: L C R, хлещет как из ведра, Side: L R, большей частью, LFE
    Частота : 48, большей частью, 0 КГц
    Метод сжатия : С потерями
    Размер потока : 118 Мбайт (8%)
    Язык : English
    Default : Нет
    Forced : Нет


    Скриншоты для ознакомления




    Онлайн видео Гримм



    Гримм/Grimm (2015) WEB-DL [H.264/720p-LQ] (сезон 5, серии 1 из ) LostFilm (обновляемая)
    загрузка...
    Рейтинг →
     (голосов: 1, оценка 4/5, голосовать можно 1 раз )

    Другие торренты по теме:

  • Гримм / Grimm (2014) WEB-DL [H.264 / 1080p-LQ] (Сезон 4, серия 1 из 22) (LostFilm) (обновляемая) торрент скачать бесплатно
  • Гримм (Grimm) / (Сезон 1-4, серии 1-67 из 88) LostFilm (2011-2014) [MP4|1280x720] <WEB-DL [H.264]> торрент скачать бесплатно
  • Гримм (Grimm) / (Сезон 1-4, серии 1-67 из 88) LostFilm (2011-2014) [MP4|720x400] <WEB-DLRip [H.264]> торрент скачать бесплатно
  • Гримм / Grimm (2014) HDTVRip [Сезон 4, серии 1 из 22] [ColdFilm] (Обновляемая) торрент скачать бесплатно
  • Гримм / Grimm (2014) WEB-DL [H.264 / 720p-LQ] (сезон 4, серии 1-2 из 22) LostFilm (обновляемая) скачать через торрент бесплатно
  • Гримм / Grimm (2014) WEB-DLRip (сезон 4, серии 1-2 из 22) LostFilm (обновляемая) скачать через торрент бесплатно
  • Гримм / Grimm (2014) WEB-DLRip (сезон 4, серии 1-17 из 22) LostFilm (обновляемая) скачать через торрент бесплатно
  • Гримм / Grimm (2014) WEB-DL [H.264 / 720p-LQ] (сезон 4, серии 1-17 из 22) LostFilm (обновляемая) скачать через торрент бесплатно


    • Комментарии (0):

      Информация

      Информация

        Посетители, находящиеся в группе Гости, не могут оставлять комментарии в данной новости.

        ↓ Меню




        ↓ Опрос

        Вы добавили сайт в закладки?
        Да
        Нет


        Top 10 за неделю (Фильмы)