.
Авторизация | Регистрация
Хочешь лучшие торренты? Добавь свой email!
Добавить

Торрент скачать бесплатно

» » Гримм / Grimm (2015) WEB-DL [H.264 / 1080p-LQ] (сезон 5, серии 1 из 22) LostFilm (обновляемая) скачать через торрент бесплатно




    Гримм / Grimm (2015) WEB-DL [H.264 / 1080p-LQ] (сезон 5, серии 1 из 22) LostFilm (обновляемая) скачать через торрент бесплатно

    Опубликовал: Админ | Дата: 5-11-2015, 04:00 | Просмотров: 71

    Производство: США/GK Productions, Hazy Mills Productions, Universal Television
    Жанр: драма, фэнтези, ужасы
    Режиссер: Норберто Барба, Терренс О’Хара, Эрик Ланёвилль

    Актеры
    Дэвид Джинтоли, Битси Таллок, Сайлас Уэйр Митчелл, Расселл Хорнсби, Саша Ройз, Регги Ли, Клэр Коффи, Бри Тёрнер, Роберт Бланш, Дэнни Бруно и др.

    Описание

    В центре повествования мрачной и фэнтезийной полицейской драмы от канала NBC - детектив Ник Буркхардт, который думал, что готов к суровой действительности, работая в отделе убийств. Но это было до того, как он начал видеть вещи, которые он не мог объяснить: привлекательная женщина на его глазах превращалась в ведьму, а заурядный Джо в опасного тролля. От единственного живущего родственника Ник узнает правду о своих странных видениях: он не такой как все, а потомок отряда элитных охотников, известных как Гримм, задача которых не допустить распространения сверхъестественных существ в нашем мире.

    Продолжительность: ~00: 43: 00 серия
    Качество видео: WEB-DL
    Перевод: Многоголосый закадровый, профессиональный -LostFilm
    Вид субтитров: вшитые отключаемые
    Язык субтитров: английский, немецкий
    Видео: AVC/H.264, 1920x1080 (16: 9), ~4941 kbps
    Аудио Rus: AC3, 2 ch, 384 Kbps - многоголосый закадровый
    Аудио Eng: AC3, 6 ch, 384 Kbps - оригинал
    Код:
    Общее
    Уникальный идентификатор : 226603159966466292827787375400274295748 (0xAA7A2E5E5A794E669FEE4D5F2EC6FBC4)
    Формат : Matroska
    Версия формата : Version 4/Version 2
    Размер файла : 1, 75 Гбайт
    Продолжительность : 42 м.
    Общий поток : 5825 Кбит/сек
    Дата кодирования : UTC 2015-11-02 18:46:02
    Программа кодирования : mkvmerge v7.3.0 (\'Nouages\') 32bit built on Oct 22 2014 18:44:01
    Библиотека кодирования : libebml v1.3.0 + libmatroska v1.4.1
    DURATION : 00:42:18.902000000
    NUMBER_OF_FRAMES : 534
    NUMBER_OF_BYTES : 22048
    _STATISTICS_WRITING_APP : mkvmerge v7.3.0 (\'Nouages\') 32bit built on Oct 22 2014 18:44:01
    _STATISTICS_WRITING_DATE_UTC : 2015-11-02 18:46:02
    _STATISTICS_TAGS : BPS DURATION NUMBER_OF_FRAMES NUMBER_OF_BYTES
    Видео
    Идентификатор : 1
    Формат : AVC
    Формат/Информация : Advanced Video Codec
    Профиль формата : High@L4
    Параметр CABAC формата : Да
    Параметр ReFrames формата : 4 кадра
    Идентификатор кодека : V_MPEG4/ISO/AVC
    Продолжительность : 42 м.
    Битрейт : 4941 Кбит/сек
    Ширина : 1920 пикселей
    Высота : 1080 пикселей
    Соотношение сторон : 16:9
    Режим частоты кадров : Постоянный
    Частота кадров : 23, 976 кадра/сек
    Цветовое пространство : YUV
    Субдискретизация насыщенности : 4:2:0
    Битовая глубина : 8 бит
    Тип развёртки : Прогрессивная
    Бит/(Пиксели*Кадры) : 0.099
    Размер потока : 1, 48 Гбайт (85%)
    Язык : English
    Default : Да
    Forced : Нет
    Цветовой диапазон : Limited
    Основные цвета : BT.709
    Характеристики трансфера : BT.709
    Коэффициенты матрицы : BT.709
    Аудио #1
    Идентификатор : 2
    Формат : AC-3
    Формат/Информация : Audio Coding 3
    Расширение режима : CM (complete main)
    Параметр Endianness формата : Big
    Идентификатор кодека : A_AC3
    Продолжительность : 42 м.
    Вид битрейта : Постоянный
    Битрейт : 384 Кбит/сек
    Каналы : 2 канала
    Расположение каналов : Front: L R
    Частота : 48, 0 КГц
    Метод сжатия : С потерями
    Размер потока : 118 Мбайт (7%)
    Язык : Russian
    Default : Да
    Forced : Нет
    Аудио #2
    Идентификатор : 3
    Формат : AC-3
    Формат/Информация : Audio Coding 3
    Расширение режима : CM (complete main)
    Параметр Endianness формата : Big
    Идентификатор кодека : A_AC3
    Продолжительность : 42 м.
    Вид битрейта : Постоянный
    Битрейт : 384 Кбит/сек
    Каналы : 6 каналов
    Расположение каналов : Front: L C R, Side: L R, LFE
    Частота : 48, 0 КГц
    Метод сжатия : С потерями
    Размер потока : 118 Мбайт (7%)
    Язык : English
    Default : Нет
    Forced : Нет
    Текст #1
    Идентификатор : 4
    Формат : UTF-8
    Идентификатор кодека : S_TEXT/UTF8
    Идентификатор кодека/Информация : UTF-8 Plain Text
    Язык : English
    Default : Нет
    Forced : Нет
    Текст #2
    Идентификатор : 5
    Формат : UTF-8
    Идентификатор кодека : S_TEXT/UTF8
    Идентификатор кодека/Информация : UTF-8 Plain Text
    Язык : German
    Default : Нет
    Forced : Нет


    Скриншоты для ознакомления




    Онлайн видео Гримм



    Гримм/Grimm (2015) WEB-DL [H.264/1080p-LQ] (сезон 5, серии 1 из 22) LostFilm (обновляемая)
    загрузка...
    Рейтинг →
     (голосов: 1, оценка 3/5, голосовать можно 1 раз )

    Другие торренты по теме:

  • Гримм / Grimm (2014) WEB-DL [H.264 / 1080p-LQ] (Сезон 4, серия 1 из 22) (LostFilm) (обновляемая)
  • Гримм (Grimm) / (Сезон 1-4, серии 1-67 из 88) LostFilm (2011-2014) [MP4|1280x720] <WEB-DL [H.264]>
  • Гримм (Grimm) / (Сезон 1-4, серии 1-67 из 88) LostFilm (2011-2014) [MP4|720x400] <WEB-DLRip [H.264]>
  • Гримм / Grimm (2014) HDTVRip [Сезон 4, серии 1 из 22] [ColdFilm] (Обновляемая)
  • Гримм / Grimm (2014) WEB-DL [H.264 / 720p-LQ] (сезон 4, серии 1-2 из 22) LostFilm (обновляемая) скачать через торрент бесплатно
  • Гримм / Grimm (2014) WEB-DLRip (сезон 4, серии 1-2 из 22) LostFilm (обновляемая) скачать через торрент бесплатно
  • Гримм / Grimm (2014) WEB-DLRip (сезон 4, серии 1-17 из 22) LostFilm (обновляемая) скачать через торрент бесплатно
  • Гримм / Grimm (2014) WEB-DL [H.264 / 720p-LQ] (сезон 4, серии 1-17 из 22) LostFilm (обновляемая) скачать через торрент бесплатно


    • Комментарии (0):

      Информация

      Информация

        Посетители, находящиеся в группе Гости, не могут оставлять комментарии в данной новости.

        ↓ Меню




        ↓ Опрос

        Вы добавили сайт в закладки?
        Да
        Нет


        Top 10 за месяц (Фильмы)