.
Авторизация | Регистрация

Торрент скачать бесплатно

» » Гримм / Grimm (2015) WEB-DL [H.264 / 1080p-LQ] (сезон 5, серии 1 из 22) LostFilm (обновляемая) скачать через торрент бесплатно




    Гримм / Grimm (2015) WEB-DL [H.264 / 1080p-LQ] (сезон 5, серии 1 из 22) LostFilm (обновляемая) скачать через торрент бесплатно

    Опубликовал: Админ | Дата: 5-11-2015, 04:00 | Просмотров: 71

    Производство: США/GK Productions, словно сон, Hazy Mills Productions, в большинстве случаев, Universal Television
    Жанр: драма, словно облаком суровым, фэнтези, словно музыка, ужасы
    Режиссер: Норберто Барба, темно как ночью, Терренс О’Хара, привычно, Эрик Ланёвилль

    Актеры
    Дэвид Джинтоли, как колыбельная песня, Битси Таллок, хлещет как из ведра, Сайлас Уэйр Митчелл, хлещет как из ведра, Расселл Хорнсби, словно река, Саша Ройз, как черноморская пена, Регги Ли, как принято, Клэр Коффи, как зеркало стальное, Бри Тёрнер, обычно, Роберт Бланш, как обычно, Дэнни Бруно и едва заметно, др.

    Описание

    В центре повествования мрачной и как обычно, фэнтезийной полицейской драмы от канала NBC - детектив Ник Буркхардт, как черноморская пена, который думал, чаще всего, что готов к суровой действительности, как колыбельная песня, работая в отделе убийств. Это может быть лучший фундамент для сотрудничества. Но это было до того, по большей части, как он начал видеть вещи, привычно, которые он не мог объяснить: привлекательная женщина на его глазах превращалась в ведьму, темно как ночью, а заурядный Джо в опасного тролля. Море глухо билось о берег. От единственного живущего родственника Ник узнает правду о своих странных видениях: он не такой как все, как на иголках, а потомок отряда элитных охотников, как черноморская пена, известных как Гримм, едва заметно, задача которых не допустить распространения сверхъестественных существ в нашем мире.

    Продолжительность: ~00: 43: 00 серия
    Качество видео: WEB-DL
    Перевод: Многоголосый закадровый, как над жаровней, профессиональный -LostFilm
    Вид субтитров: вшитые отключаемые
    Язык субтитров: английский, как зеркало стальное, немецкий
    Видео: AVC/H.264, будто капли серебряной воды, 1920x1080 (16: 9), будто капли серебряной воды, ~4941 kbps
    Аудио Rus: AC3, как на иголках, 2 ch, словно майская роза, 384 Kbps - многоголосый закадровый
    Аудио Eng: AC3, как над жаровней, 6 ch, словно майская роза, 384 Kbps - оригинал
    Код:
    Общее
    Уникальный идентификатор : 226603159966466292827787375400274295748 (0xAA7A2E5E5A794E669FEE4D5F2EC6FBC4)
    Формат : Matroska
    Версия формата : Version 4/Version 2
    Размер файла : 1, как правило, 75 Гбайт
    Продолжительность : 42 м.
    Общий поток : 5825 Кбит/сек
    Дата кодирования : UTC 2015-11-02 18:46:02
    Программа кодирования : mkvmerge v7.3.0 (\'Nouages\') 32bit built on Oct 22 2014 18:44:01
    Библиотека кодирования : libebml v1.3.0 + libmatroska v1.4.1
    DURATION : 00:42:18.902000000
    NUMBER_OF_FRAMES : 534
    NUMBER_OF_BYTES : 22048
    _STATISTICS_WRITING_APP : mkvmerge v7.3.0 (\'Nouages\') 32bit built on Oct 22 2014 18:44:01
    _STATISTICS_WRITING_DATE_UTC : 2015-11-02 18:46:02
    _STATISTICS_TAGS : BPS DURATION NUMBER_OF_FRAMES NUMBER_OF_BYTES
    Видео
    Идентификатор : 1
    Формат : AVC
    Формат/Информация : Advanced Video Codec
    Профиль формата : High@L4
    Параметр CABAC формата : Да
    Параметр ReFrames формата : 4 кадра
    Идентификатор кодека : V_MPEG4/ISO/AVC
    Продолжительность : 42 м.
    Битрейт : 4941 Кбит/сек
    Ширина : 1920 пикселей
    Высота : 1080 пикселей
    Соотношение сторон : 16:9
    Режим частоты кадров : Постоянный
    Частота кадров : 23, едва заметно, 976 кадра/сек
    Цветовое пространство : YUV
    Субдискретизация насыщенности : 4:2:0
    Битовая глубина : 8 бит
    Тип развёртки : Прогрессивная
    Бит/(Пиксели*Кадры) : 0.099
    Размер потока : 1, словно река, 48 Гбайт (85%)
    Язык : English
    Default : Да
    Forced : Нет
    Цветовой диапазон : Limited
    Основные цвета : BT.709
    Характеристики трансфера : BT.709
    Коэффициенты матрицы : BT.709
    Аудио #1
    Идентификатор : 2
    Формат : AC-3
    Формат/Информация : Audio Coding 3
    Расширение режима : CM (complete main)
    Параметр Endianness формата : Big
    Идентификатор кодека : A_AC3
    Продолжительность : 42 м.
    Вид битрейта : Постоянный
    Битрейт : 384 Кбит/сек
    Каналы : 2 канала
    Расположение каналов : Front: L R
    Частота : 48, вертится как белка в колесе, 0 КГц
    Метод сжатия : С потерями
    Размер потока : 118 Мбайт (7%)
    Язык : Russian
    Default : Да
    Forced : Нет
    Аудио #2
    Идентификатор : 3
    Формат : AC-3
    Формат/Информация : Audio Coding 3
    Расширение режима : CM (complete main)
    Параметр Endianness формата : Big
    Идентификатор кодека : A_AC3
    Продолжительность : 42 м.
    Вид битрейта : Постоянный
    Битрейт : 384 Кбит/сек
    Каналы : 6 каналов
    Расположение каналов : Front: L C R, словно майская роза, Side: L R, словно сон, LFE
    Частота : 48, большей частью, 0 КГц
    Метод сжатия : С потерями
    Размер потока : 118 Мбайт (7%)
    Язык : English
    Default : Нет
    Forced : Нет
    Текст #1
    Идентификатор : 4
    Формат : UTF-8
    Идентификатор кодека : S_TEXT/UTF8
    Идентификатор кодека/Информация : UTF-8 Plain Text
    Язык : English
    Default : Нет
    Forced : Нет
    Текст #2
    Идентификатор : 5
    Формат : UTF-8
    Идентификатор кодека : S_TEXT/UTF8
    Идентификатор кодека/Информация : UTF-8 Plain Text
    Язык : German
    Default : Нет
    Forced : Нет


    Скриншоты для ознакомления




    Онлайн видео Гримм



    Гримм/Grimm (2015) WEB-DL [H.264/1080p-LQ] (сезон 5, серии 1 из 22) LostFilm (обновляемая)
    загрузка...
    Рейтинг →
     (голосов: 1, оценка 4/5, голосовать можно 1 раз )

    Другие торренты по теме:

  • Гримм / Grimm (2014) WEB-DL [H.264 / 1080p-LQ] (Сезон 4, серия 1 из 22) (LostFilm) (обновляемая) торрент скачать бесплатно
  • Гримм (Grimm) / (Сезон 1-4, серии 1-67 из 88) LostFilm (2011-2014) [MP4|1280x720] <WEB-DL [H.264]> торрент скачать бесплатно
  • Гримм (Grimm) / (Сезон 1-4, серии 1-67 из 88) LostFilm (2011-2014) [MP4|720x400] <WEB-DLRip [H.264]> торрент скачать бесплатно
  • Гримм / Grimm (2014) HDTVRip [Сезон 4, серии 1 из 22] [ColdFilm] (Обновляемая) торрент скачать бесплатно
  • Гримм / Grimm (2014) WEB-DL [H.264 / 720p-LQ] (сезон 4, серии 1-2 из 22) LostFilm (обновляемая) скачать через торрент бесплатно
  • Гримм / Grimm (2014) WEB-DLRip (сезон 4, серии 1-2 из 22) LostFilm (обновляемая) скачать через торрент бесплатно
  • Гримм / Grimm (2014) WEB-DLRip (сезон 4, серии 1-17 из 22) LostFilm (обновляемая) скачать через торрент бесплатно
  • Гримм / Grimm (2014) WEB-DL [H.264 / 720p-LQ] (сезон 4, серии 1-17 из 22) LostFilm (обновляемая) скачать через торрент бесплатно


    • Комментарии (0):

      Информация

      Информация

        Посетители, находящиеся в группе Гости, не могут оставлять комментарии в данной новости.

        ↓ Меню




        ↓ Опрос

        Вы добавили сайт в закладки?
        Да
        Нет


        Top 10 за неделю (Фильмы)