.
Авторизация | Регистрация
Хочешь лучшие торренты? Добавь свой email!
Добавить

Торрент скачать бесплатно

» » Мыслить как преступник / Criminal Minds (2015) WEB-DLRip (сезон 11, серии 1 из ) Fox (обновляемая) скачать через торрент бесплатно




    Мыслить как преступник / Criminal Minds (2015) WEB-DLRip (сезон 11, серии 1 из ) Fox (обновляемая) скачать через торрент бесплатно

    Опубликовал: Админ | Дата: 5-11-2015, 04:00 | Просмотров: 86

    Производство: США, Канада/Touchstone Television, Paramount Network Television, Mark Gordon Company
    Жанр: триллер, драма, криминал, детектив
    Режиссер: Гленн Кершоу, Феликс Энрикез Алькала, Эдвард Аллен Бернеро

    Актеры
    Мэнди Пэтинкин, Томас Гибсон, Мэттью Грей Гублер, Шемар Мур, А.Дж. Кук, Кирстен Вангснесс, Лола Глаудини, Пэйджет Брюстер, Джейн Эткинсон, Джо Мантенья и др.

    Описание

    В Сиэтле за короткое время пропали без вести четыре молодые девушки. Возникает версия, что в городе появился серийный маньяк-убийца. За расследование этого криминального случая берется спецподразделение ФБР, специализирующееся на поведенческом анализе действий преступников.
    Во главе этого подразделения стоит Джейсон Гидеон, который со своими напарниками пытается вычислить преступника, создавая его психологический портрет. Джейсон — не частый гость криминалистических лабораторий ФБР. Он и его команда выезжают на места преступлений, опрашивают свидетелей, анализируют и словно река изучают психологическую сторону жизни преступника…

    Релиз от: NewStudio
    Продолжительность: ~00: 43: 00 серия
    Качество видео: WEB-DLRip
    Перевод: Многоголосый закадровый, профессиональный -Fox
    Видео: XviD, 720х400 (16: 9), ~1362 kb/s
    Аудио Rus: MPEG Layer 3, 48, 0 kHz, 2 ch, 128 kb/s - многоголосый закадровый
    Аудио Eng: MPEG Layer 3, 48, 0 kHz, 2 ch, 128 kb/s - оригинал
    Общее
    Полное имя : D: Мыслить как преступник (сезон любимого сериала 11) Criminal Minds (2015) WEB-DLRip - NewStudioCriminal.Minds.s11e01.WEBDLRip.NewStudio.TV.avi
    Формат : AVI
    Формат/Информация : Audio Video Interleave
    Размер файла : 501 Мбайт
    Продолжительность : 42 м.
    Общий поток : 1632 Кбит/сек
    Программа кодирования : VirtualDubMod 1.5.10.2 (build 2540/release)
    Библиотека кодирования : VirtualDubMod build 2540/release
    Видео
    Идентификатор : 0
    Формат : MPEG-4 Visual
    Профиль формата : Advanced Simple@L5
    Параметр BVOP формата : 2
    Параметр QPel формата : Нет
    Параметр GMC формата : Без точки перехода
    Параметр матрицы формата : Default (MPEG)
    Идентификатор кодека : XVID
    Идентификатор кодека/Подсказка : XviD
    Продолжительность : 42 м.
    Битрейт : 1362 Кбит/сек
    Ширина : 720 пикселей
    Высота : 400 пикселей
    Соотношение сторон : 16: 9
    Частота кадров : 23, 976 кадра/сек
    Цветовое пространство : YUV
    Субдискретизация насыщенности : 4: 2: 0
    Битовая глубина : 8 бит
    Тип развёртки : Прогрессивная
    Метод сжатия : С потерями
    Бит/(Пиксели*Кадры) : 0.197
    Размер потока : 418 Мбайт (83%)
    Библиотека кодирования : XviD 73
    Аудио #1
    Идентификатор : 1
    Формат : MPEG Audio
    Версия формата : Version 1
    Профиль формата : Layer 3
    Режим : Joint stereo
    Расширение режима : MS Stereo
    Идентификатор кодека : 55
    Идентификатор кодека/Подсказка : MP3
    Продолжительность : 42 м.
    Вид битрейта : Постоянный
    Битрейт : 128 Кбит/сек
    Каналы : 2 канала
    Частота : 48, 0 КГц
    Метод сжатия : С потерями
    Размер потока : 39, 3 Мбайт (8%)
    Выравнивание : Соединение по промежуткам
    Продолжительность промежутка : 42 мс. (1, 00 видеокадр)
    Время предзагрузки промежутка : 504 мс.
    Аудио #2
    Идентификатор : 2
    Формат : MPEG Audio
    Версия формата : Version 1
    Профиль формата : Layer 3
    Режим : Joint stereo
    Идентификатор кодека : 55
    Идентификатор кодека/Подсказка : MP3
    Продолжительность : 42 м.
    Вид битрейта : Постоянный
    Битрейт : 128 Кбит/сек
    Каналы : 2 канала
    Частота : 48, 0 КГц
    Метод сжатия : С потерями
    Размер потока : 39, 3 Мбайт (8%)
    Выравнивание : Соединение по промежуткам
    Продолжительность промежутка : 42 мс. (1, 00 видеокадр)
    Время предзагрузки промежутка : 504 мс.


    Скриншоты для ознакомления




    Онлайн видео Мыслить как преступник



    Мыслить как преступник/Criminal Minds (2015) WEB-DLRip (сезон 11, серии 1 из ) Fox (обновляемая)
    загрузка...
    Рейтинг →
     (голосов: 1, оценка 5/5, голосовать можно 1 раз )

    Другие торренты по теме:

  • Мыслить как преступник / Criminal Minds (2014) WEB-DL [H.264 / 1080p-LQ] (сезон 10, серии 1-4 из 24) Fox (обновляемая)
  • VA - Criminal Mind / Мыслить как преступник (Unofficial Soundtrack) (2005-2015) [MP3|320 кб / с]<Soundtrack> скачать через торрент бесплатно
  • Мыслить как преступник: За границей / Criminal Minds: Beyond Borders (2016) WEB-DL [H.264 / 720p-LQ] (сезон 1, серии 1 из 13) OMSKBIRD (обновляемая)
  • Мыслить как преступник: За границей / Criminal Minds: Beyond Borders (2016) WEB-DLRip (сезон 1, серии 1 из 13) OMSKBIRD (обновляемая)
  • Мыслить как преступник / Criminal Minds (2015) WEB-DLRip (сезон 11, серии 1-22 из 22) Fox
  • Мыслить как преступник: За границей / Criminal Minds: Beyond Borders (2017) WEB-DL [H.264 / 1080p-LQ] (сезон 2, серии 1 из 13) OMSKBIRD (обновляемая)


    • Комментарии (0):

      Информация

      Информация

        Посетители, находящиеся в группе Гости, не могут оставлять комментарии в данной новости.

        ↓ Меню




        ↓ Опрос

        Вы добавили сайт в закладки?
        Да
        Нет


        Top 10 за месяц (Фильмы)