.
Авторизация | Регистрация
Хочешь лучшие торренты? Добавь свой email!
Добавить

Торрент скачать бесплатно

» » Великая (2015) HDTVRip (серии 1-2 из 12) (обновляемая) скачать через торрент бесплатно




    Великая (2015) HDTVRip (серии 1-2 из 12) (обновляемая) скачать через торрент бесплатно

    Опубликовал: Админ | Дата: 5-11-2015, 04:00 | Просмотров: 75

    Производство: Россия/Mars Media
    Жанр: драма, история
    Режиссер: Игорь Зайцев

    Актеры
    Юлия Снигирь, Павел Деревянко, Сергей Шакуров, Наталья Суркова, Роман Мадянов, Марк Богатырёв, Светлана Фролова, Ольга Медынич, Павел Трубинер, Виктор Раков, Семён Стругачёв, Станислав Любшин, Виктор Тереля, Дмитрий Ульянов, Рихард Леперс, Илья Носков, Валерий Кухарешин, Владимир Матвеев, Эрнст Романов, Дмитрий Быковский-Ромашов, Иван Батарев, Светлана Смирнова-Кацагаджиева, Михаил Сидаш, Иван Шмаков, Леонид Ворон, Фитц ван Том, Сергей Горобченко и др.

    Описание

    История становления личности самодержицы Екатерины Великой с момента ее приезда в Россию на правах невесты Петра III и до восхождения на Российский престол. Почти 20 лет дворцовых интриг, заговоров, борьбы за власть и личных драм.

    Дата премьеры в РФ: 5 ноября 2015
    Продолжительность: ~00: 50: 00 серия
    Качество видео: HDTVRip
    Видео: XVID, 720х400 (16: 9), ~1800 kbps
    Аудио: AC3, 2 ch, 192 kbps, CBR
    Код:
    Общее
    Полное имя : E:DOWNLOADSВеликая (Екатерина Великая) (2015) HDTVRipВеликая (Екатерина Великая) - 01 серия.avi
    Формат : AVI
    Формат/Информация : Audio Video Interleave
    Размер файла : 689 Мбайт
    Продолжительность : 48 м.
    Общий поток : 2001 Кбит/сек
    Программа кодирования : VirtualDubMod 1.5.10.3 |www.virtualdub-fr.org|| (build 2550/release)
    Библиотека кодирования : VirtualDubMod build 2550/release
    Видео
    Идентификатор : 0
    Формат : MPEG-4 Visual
    Профиль формата : Advanced Simple@L5
    Параметр BVOP формата : 1
    Параметр QPel формата : Нет
    Параметр GMC формата : Без точки перехода
    Параметр матрицы формата : Выборочная
    Идентификатор кодека : XVID
    Идентификатор кодека/Подсказка : XviD
    Продолжительность : 48 м.
    Битрейт : 1800 Кбит/сек
    Ширина : 720 пикселей
    Высота : 400 пикселей
    Соотношение сторон : 16:9
    Частота кадров : 25, 000 кадров/сек
    Цветовое пространство : YUV
    Субдискретизация насыщенности : 4:2:0
    Битовая глубина : 8 бит
    Тип развёртки : Прогрессивная
    Метод сжатия : С потерями
    Бит/(Пиксели*Кадры) : 0.250
    Размер потока : 620 Мбайт (90%)
    Библиотека кодирования : XviD 73
    Аудио
    Идентификатор : 1
    Формат : AC-3
    Формат/Информация : Audio Coding 3
    Расширение режима : CM (complete main)
    Параметр Endianness формата : Big
    Идентификатор кодека : 2000
    Продолжительность : 48 м.
    Вид битрейта : Постоянный
    Битрейт : 192 Кбит/сек
    Каналы : 2 канала
    Расположение каналов : Front: L R
    Частота : 48, 0 КГц
    Метод сжатия : С потерями
    Размер потока : 66, 1 Мбайт (10%)
    Выравнивание : Разделение по промежуткам
    Продолжительность промежутка : 40 мс. (1, 00 видеокадр)
    Время предзагрузки промежутка : 500 мс.


    Скриншоты для ознакомления




    Онлайн видео Великая (2015) HDTVRip (серии 1



    Великая (2015) HDTVRip (серии 1-2 из 12) (обновляемая)
    загрузка...
    Рейтинг →
     (голосов: 1, оценка 3/5, голосовать можно 1 раз )

    Другие торренты по теме:

  • Великая (2015) HDTVRip [H.264 / 720p-LQ] (серии 1-12 из 12) скачать через торрент бесплатно
  • Взрывая историю. Великая китайская стена / Great wall of China (2016) HDTVRip [H.264 / 720р]
  • Великая гора Хуаншань (2014) HDTVRip [H264 / 720p-LQ] (серии 1-6 из 6)
  • PBS Nova: Великая тайна математики / The Great Math Mystery (2015) HDTVRip [H.264 / 720p-LQ] (Сезон 42, эпизод 7)
  • Отечественная. Великая. Кто победил в 1812 году (2012) HDTVRip [H.264 / 720p-LQ]
  • Великая русская революция (2017) HDTVRip [H.264 / 720p-LQ]


    • Комментарии (0):

      Информация

      Информация

        Посетители, находящиеся в группе Гости, не могут оставлять комментарии в данной новости.

        ↓ Меню




        ↓ Опрос

        Вы добавили сайт в закладки?
        Да
        Нет


        Top 10 за месяц (Фильмы)