.
Авторизация | Регистрация
Хочешь лучшие торренты? Добавь свой email!
Добавить

Торрент скачать бесплатно

» » Великая (2015) HDTV [H.264 / 1080i-LQ] (серии 1-2 из 12) (обновляемая) скачать через торрент бесплатно




    Великая (2015) HDTV [H.264 / 1080i-LQ] (серии 1-2 из 12) (обновляемая) скачать через торрент бесплатно

    Опубликовал: Админ | Дата: 5-11-2015, 04:00 | Просмотров: 68

    Производство: Россия/Mars Media
    Жанр: драма, история
    Режиссер: Игорь Зайцев

    Актеры
    Юлия Снигирь, Павел Деревянко, Сергей Шакуров, Наталья Суркова, Роман Мадянов, Марк Богатырёв, Светлана Фролова, Ольга Медынич, Павел Трубинер, Виктор Раков, Семён Стругачёв, Станислав Любшин, Виктор Тереля, Дмитрий Ульянов, Рихард Леперс, Илья Носков, Валерий Кухарешин, Владимир Матвеев, Эрнст Романов, Дмитрий Быковский-Ромашов, Иван Батарев, Светлана Смирнова-Кацагаджиева, Михаил Сидаш, Иван Шмаков, Леонид Ворон, Фитц ван Том, Сергей Горобченко и др.

    Описание

    История становления личности самодержицы Екатерины Великой с момента ее приезда в Россию на правах невесты Петра III и до восхождения на Российский престол. Почти 20 лет дворцовых интриг, заговоров, борьбы за власть и личных драм.

    Дата премьеры в РФ: 5 ноября 2015
    Продолжительность: ~00: 50: 00 серия
    Качество видео: HDTV
    Видео: AVC/H.264, 1920х1080 (16: 9), ~6500 kbps
    Аудио: AC3, 2 ch, 192 kbps, CBR
    Код:
    Общее
    Уникальный идентификатор : 188462136505360684166165050415764439185 (0x8DC87CB9A7F491B49C93CC35F8038091)
    Полное имя : E:DOWNLOADSВеликая (Екатерина Великая) (2015) HDTV 1080Великая (Екатерина Великая) - 01 серия.mkv
    Формат : Matroska
    Версия формата : Version 2
    Размер файла : 2, 30 Гбайт
    Продолжительность : 48 м.
    Общий поток : 6832 Кбит/сек
    Дата кодирования : UTC 2015-11-04 18:52:26
    Программа кодирования : mkvmerge v7.8.0 (\'River Man\') 32bit built on Apr 3 2015 12:11:22
    Библиотека кодирования : libebml v1.3.1 + libmatroska v1.4.2
    Видео
    Идентификатор : 1
    Формат : AVC
    Формат/Информация : Advanced Video Codec
    Профиль формата : High@L4
    Параметр CABAC формата : Да
    Параметр ReFrames формата : 3 кадра
    Идентификатор кодека : V_MPEG4/ISO/AVC
    Продолжительность : 48 м.
    Битрейт : 6504 Кбит/сек
    Ширина : 1920 пикселей
    Высота : 1080 пикселей
    Соотношение сторон : 16:9
    Режим частоты кадров : Постоянный
    Частота кадров : 25, 000 кадров/сек
    Стандарт вещания : Component
    Цветовое пространство : YUV
    Субдискретизация насыщенности : 4:2:0
    Битовая глубина : 8 бит
    Тип развёртки : Чересстрочная
    Порядок развёртки : Верхнее поле первое
    Бит/(Пиксели*Кадры) : 0.125
    Размер потока : 2, 19 Гбайт (95%)
    Default : Да
    Forced : Нет
    Цветовой диапазон : Limited
    Основные цвета : BT.709
    Характеристики трансфера : BT.709
    Коэффициенты матрицы : BT.709
    Аудио
    Идентификатор : 2
    Формат : AC-3
    Формат/Информация : Audio Coding 3
    Расширение режима : CM (complete main)
    Параметр Endianness формата : Big
    Идентификатор кодека : A_AC3
    Продолжительность : 48 м.
    Вид битрейта : Постоянный
    Битрейт : 192 Кбит/сек
    Каналы : 2 канала
    Расположение каналов : Front: L R
    Частота : 48, 0 КГц
    Метод сжатия : С потерями
    Размер потока : 66, 1 Мбайт (3%)
    Default : Да
    Forced : Нет


    Скриншоты для ознакомления




    Онлайн видео Великая (2015) HDTV [H.264



    Великая (2015) HDTV [H.264/1080i-LQ] (серии 1-2 из 12) (обновляемая)
    загрузка...
    Рейтинг →
     (голосов: 1, оценка 5/5, голосовать можно 1 раз )

    Другие торренты по теме:

  • Великая война (2010) HDTV [H.264] (18 серий из 18) [MP4|1280x720] скачать через торрент бесплатно
  • Екатерина Великая. Женская доля (2015) HDTV [H.264 / 1080i-LQ] скачать через торрент бесплатно
  • Вторая мировая. Великая Отечественная (2015) HDTV [H.264 / 1080i] (серии 1-6 из ) (ОБНОВЛЯЕМАЯ) скачать через торрент бесплатно
  • Великая одиссея человечества / Great Human Odyssey (2015) HDTV [H.264 / 1080i] (серии 1-3 из 3)


    • Комментарии (0):

      Информация

      Информация

        Посетители, находящиеся в группе Гости, не могут оставлять комментарии в данной новости.

        ↓ Меню




        ↓ Опрос

        Вы добавили сайт в закладки?
        Да
        Нет


        Top 10 за месяц (Фильмы)