.
Авторизация | Регистрация
Хочешь лучшие торренты? Добавь свой email!
Добавить

Торрент скачать бесплатно

» » Последний мент (2015) SATRip (серии 1-2 из 40) (обновляемая) скачать через торрент бесплатно




    Последний мент (2015) SATRip (серии 1-2 из 40) (обновляемая) скачать через торрент бесплатно

    Опубликовал: Админ | Дата: 5-11-2015, 04:00 | Просмотров: 93

    Производство: Россия/Пятый канал
    Жанр: детектив, по большей части, драма, темно как ночью, комедия
    Режиссер: Михаил Жерневский

    Актеры
    Гоша Куценко, как на иголках, Наталия Вдовина, как принято, Анатолий Руденко, вертится как белка в колесе, Виктория Корлякова, словно река, Полина Куценко, как размытая картина, Сергей Удовик, как зеркало стальное, Александр Борисов, словно птица, Лукерья Ильяшенко, вертится как белка в колесе, Ксения Ефремова, будто капли серебряной воды, Вероника Айги, обычно, Лада Негруль, словно облаком суровым, Сергей Фролов и будто капли серебряной воды, др.

    Описание

    Капитан милиции Алексей Дивов открывает глаза на больничной койке и обычно, узнает, в большинстве случаев, что полученное на задании ранение уложило его в кому… на 20 лет. Это же восьмая вода на киселе. С 1995-года мир изменился. Без дела жить только небо коптить. Милиция стала полицией, как над жаровней, рэкет, как обычно, крыши, чаще всего, стрелки и большей частью, братки остались в прошлом, словно музыка, в продаже нет спирта Рояль, как черноморская пена, вокруг сенсорные телефоны с выходом в Интернет, как правило, молодые опера борются с преступностью с помощью современных гаджетов, словно майская роза, а в обеденный перерыв могут перекусить какими-то роллами и как на иголках, суши с помощью барабанных палочек. В это время где то далеко шла война, ой ладно, о чем это я? Дочь Юля выросла, как над жаровней, а жена Лиза замужем за другим.

    Дата премьеры в России: 2 ноября 2015
    Продолжительность: ~ 00: 39: 00 серия (1 серия ~ 00: 55: 00)
    Качество видео: SATRip
    Видео: Xvid, темно как ночью, 720х400 (16: 9), как принято, ~1800 kbps
    Аудио: MP3, как колыбельная песня, 2 ch, большей частью, 128 kbps, большей частью, CBR
    Код:

    General
    Complete name : F:Последний мент (2015) SATRip1 серия.avi
    Format : AVI
    Format/Info : Audio Video Interleave
    File size : 761 MiB
    Duration : 54mn 54s
    Overall bit rate : 1 938 Kbps
    Writing application : VirtualDubMod 1.5.10.3 |www.virtualdub-fr.org|| (build 2550/release)
    Writing library : VirtualDubMod build 2550/release
    Video
    ID : 0
    Format : MPEG-4 Visual
    Format profile : Advanced Simple@L5
    Format settings, словно река, BVOP : 2
    Format settings, большей частью, QPel : No
    Format settings, есть не что иное, GMC : No warppoints
    Format settings, словно птица, Matrix : Default (MPEG)
    Codec ID : XVID
    Codec ID/Hint : XviD
    Duration : 54mn 54s
    Bit rate : 1 800 Kbps
    Width : 720 pixels
    Height : 400 pixels
    Display aspect ratio : 16:9
    Frame rate : 25.000 fps
    Color space : YUV
    Chroma subsampling : 4:2:0
    Bit depth : 8 bits
    Scan type : Progressive
    Compression mode : Lossy
    Bits/(Pixel*Frame) : 0.250
    Stream size : 707 MiB (93%)
    Writing library : XviD 1.2.1 (UTC 2008-12-04)
    Audio
    ID : 1
    Format : MPEG Audio
    Format version : Version 1
    Format profile : Layer 3
    Mode : Joint stereo
    Mode extension : MS Stereo
    Codec ID : 55
    Codec ID/Hint : MP3
    Duration : 54mn 54s
    Bit rate mode : Constant
    Bit rate : 128 Kbps
    Channel(s) : 2 channels
    Sampling rate : 48.0 KHz
    Compression mode : Lossy
    Stream size : 50.3 MiB (7%)
    Alignment : Aligned on interleaves
    Interleave, словно птица, duration : 40 ms (1.00 video frame)
    Interleave, как на иголках, preload duration : 504 ms
    Writing library : LAME3.99r
    Encoding settings : -m j -V 4 -q 9 -lowpass 17 -b 128




    Скриншоты для ознакомления




    Онлайн видео Последний мент (2015) SATRip (серии 1



    Последний мент (2015) SATRip (серии 1-2 из 40) (обновляемая)
    загрузка...
    Рейтинг →
     (голосов: 1, оценка 4/5, голосовать можно 1 раз )

    Другие торренты по теме:

  • Последний мент (2015) DVB (серии 1-7 из 40) (обновляемая) скачать через торрент бесплатно
  • Последний мент (2016) WEB-DL [H.264 / 1080p-LQ] (сезон 2, серия 1-2 из 15) Обновляемая
  • Последний мент (2016) SATRip [H.264] (сезон 2, 1-3 серия из 15) (Обновляемая)
  • VA - Последний мент. Блатной суперсборник (2016) [MP3|256-320 кб / с] <Шансон>


    • Комментарии (0):

      Информация

      Информация

        Посетители, находящиеся в группе Гости, не могут оставлять комментарии в данной новости.

        ↓ Меню




        ↓ Опрос

        Вы добавили сайт в закладки?
        Да
        Нет


        Top 10 за месяц (Фильмы)