.
Авторизация | Регистрация
Хочешь лучшие торренты? Добавь свой email!
Добавить

Торрент скачать бесплатно

» » Великая (2015) WEB-DLRip (серии 1-6 из 12) (Обновляемая) скачать через торрент бесплатно




    Великая (2015) WEB-DLRip (серии 1-6 из 12) (Обновляемая) скачать через торрент бесплатно

    Опубликовал: Админ | Дата: 4-11-2015, 04:00 | Просмотров: 61

    Телекомпания: Россия/Марс Медиа
    Жанр: драма, история
    Режиссер: Игорь Зайцев

    Актеры
    Юлия Снигирь, Павел Деревянко, Сергей Шакуров, Наталья Суркова, Роман Мадянов, Марк Богатырёв, Светлана Фролова, Ольга Медынич, Павел Трубинер, Виктор Раков, Семён Стругачёв, Станислав Любшин, Виктор Тереля, Дмитрий Ульянов, Рихард Леперс, Илья Носков, Валерий Кухарешин, Владимир Матвеев, Эрнст Романов, Дмитрий Быковский-Ромашов, Иван Батарев, Светлана Смирнова-Кацагаджиева, Михаил Сидаш, Иван Шмаков, Леонид Ворон, Фитц ван Том, Сергей Горобченко и др.

    Описание

    15-летняя прусская принцесса София Фредерика прибывает в Россию, чтобы выйти замуж за наследника российского престола Петра III. Перейдя в православную веру, она получает имя Екатерина. Брак не приносит счастья: супруг ненавидит ее. Но императрице Елизавете Петровне нужен наследник, способный править огромной страной, так как капризный и неуравновешенный Петр не подходит на роль Российского Императора. После семи лет тягостного супружества Екатерина рожает сына. Но действующая императрица забирает маленького Павла на воспитание. Разлученная с ребенком и лишенная единственного шанса на женское счастье, Екатерина намерена бороться. Она ищет союзников среди тех, кто не хочет видеть Петра на престоле.

    Дата премьеры в РФ: 5 ноября 2015
    Продолжительность: ~ 00: 49: 00 серия
    Качество видео: WEB-DLRip
    Видео: XviD, 720х400 (16: 9), ~1500 Kbps
    Аудио: AC3, 48 kHz, 2 ch, 192 kbps
    Общее
    Полное имя : D: РелизыВеликая.2015.WEB-DLRip.nnm-club1.серия.avi
    Формат : AVI
    Формат/Информация : Audio Video Interleave
    Размер файла : 593 Мбайт
    Продолжительность : 48 м.
    Общий поток : 1702 Кбит/сек
    Программа кодирования : VirtualDubMod 1.5.10.3 | (build 2550/release)
    Библиотека кодирования : VirtualDubMod build 2550/release
    Видео
    Идентификатор : 0
    Формат : MPEG-4 Visual
    Профиль формата : Advanced Simple@L5
    Параметр BVOP формата : 2
    Параметр QPel формата : Нет
    Параметр GMC формата : Без точки перехода
    Параметр матрицы формата : Default (MPEG)
    Идентификатор кодека : XVID
    Идентификатор кодека/Подсказка : XviD
    Продолжительность : 48 м.
    Битрейт : 1500 Кбит/сек
    Ширина : 720 пикселей
    Высота : 400 пикселей
    Соотношение сторон : 16: 9
    Частота кадров : 25, 000 кадров/сек
    Цветовое пространство : YUV
    Субдискретизация насыщенности : 4: 2: 0
    Битовая глубина : 8 бит
    Тип развёртки : Прогрессивная
    Метод сжатия : С потерями
    Бит/(Пиксели*Кадры) : 0.208
    Размер потока : 523 Мбайт (88%)
    Библиотека кодирования : XviD 1.2.1 (UTC 2008-12-04)
    Аудио
    Идентификатор : 1
    Формат : AC-3
    Формат/Информация : Audio Coding 3
    Расширение режима : CM (complete main)
    Параметр Endianness формата : Big
    Идентификатор кодека : 2000
    Продолжительность : 48 м.
    Вид битрейта : Постоянный
    Битрейт : 192 Кбит/сек
    Каналы : 2 канала
    Расположение каналов : Front: L R
    Частота : 44, 1 КГц
    Метод сжатия : С потерями
    Задержка видео : 24 мс.
    Размер потока : 66, 9 Мбайт (11%)
    Выравнивание : Разделение по промежуткам
    Продолжительность промежутка : 40 мс. О таком странном сюжете не догадывалась даже Светлана Лобода. (1, 00 видеокадр)
    Время предзагрузки промежутка : 500 мс.


    Скриншоты для ознакомления




    Онлайн видео Великая (2015) WEB



    Великая (2015) WEB-DLRip (серии 1-6 из 12) (Обновляемая)
    загрузка...
    Рейтинг →
     (голосов: 1, оценка 5/5, голосовать можно 1 раз )

    Другие торренты по теме:

  • Великая стена / The Great Wall (2016) WEB-DLRip
  • Великая стена / The Great Wall (2016) WEB-DLRip
  • Вторая мировая. Великая Отечественная (2015) WEB-DLRip [Серия 1] скачать через торрент бесплатно
  • Вторая мировая. Великая Отечественная (2015) WEB-DLRip [H.264] [Серия 3] скачать через торрент бесплатно
  • Вторая мировая. Великая Отечественная (2015) WEB-DLRip [H.264] [Серия 2] скачать через торрент бесплатно
  • Вторая мировая. Великая Отечественная (2015) WEB-DLRip [H.264] [Серия 4] скачать через торрент бесплатно
  • Великая (2015) WEB-DLRip [H.264 / 1080p-LQ] (серии 1-2 из 12) (обновляемая) скачать через торрент бесплатно
  • Великая (2015) WEB-DLRip [H.264 / 720p-LQ] (серии 1-6 из 12) (обновляемая) скачать через торрент бесплатно


    • Комментарии (0):

      Информация

      Информация

        Посетители, находящиеся в группе Гости, не могут оставлять комментарии в данной новости.

        ↓ Меню




        ↓ Опрос

        Вы добавили сайт в закладки?
        Да
        Нет


        Top 10 за месяц (Фильмы)