.
Авторизация | Регистрация
Хочешь лучшие торренты? Добавь свой email!
Добавить

Торрент скачать бесплатно

» » Великая (2015) WEB-DLRip [H.264 / 1080p-LQ] (серии 1-2 из 12) (обновляемая) скачать через торрент бесплатно




    Великая (2015) WEB-DLRip [H.264 / 1080p-LQ] (серии 1-2 из 12) (обновляемая) скачать через торрент бесплатно

    Опубликовал: Админ | Дата: 4-11-2015, 04:00 | Просмотров: 76

    Производство: Россия/Mars Media
    Жанр: драма, история
    Режиссер: Игорь Зайцев

    Актеры
    Юлия Снигирь, Павел Деревянко, Сергей Шакуров, Наталья Суркова, Роман Мадянов, Марк Богатырёв, Светлана Фролова, Ольга Медынич, Павел Трубинер, Виктор Раков, Семён Стругачёв, Станислав Любшин, Виктор Тереля, Дмитрий Ульянов, Рихард Леперс, Илья Носков, Валерий Кухарешин, Владимир Матвеев, Эрнст Романов, Дмитрий Быковский-Ромашов, Иван Батарев, Светлана Смирнова-Кацагаджиева, Михаил Сидаш, Иван Шмаков, Леонид Ворон, Фитц ван Том, Сергей Горобченко и др.

    Описание

    История становления личности самодержицы Екатерины Великой с момента ее приезда в Россию на правах невесты Петра III и до восхождения на Российский престол. Почти 20 лет дворцовых интриг, заговоров, борьбы за власть и личных драм.

    Дата премьеры в РФ: 5 ноября 2015
    Продолжительность: ~00: 50: 00 серия
    Качество видео: WEB-DLRip
    Видео: AVC/H.264, 1912х1072 (16: 9), ~4000 kbps
    Аудио: AC3, 2 ch, 192 kbps, CBR
    Код:
    Общее
    Уникальный идентификатор : 233989784041938015642041044180534074343 (0xB008CB0DA0F0F299A9F5AF9FDEFC9BE7)
    Полное имя : E:DOWNLOADSВеликая (Екатерина Великая) (2015) WEB-DLRip 1080Великая (Екатерина Великая) - 01 серия.mkv
    Формат : Matroska
    Версия формата : Version 2
    Размер файла : 1, 43 Гбайт
    Продолжительность : 48 м.
    Общий поток : 4196 Кбит/сек
    Дата кодирования : UTC 2015-11-03 15:54:09
    Программа кодирования : mkvmerge v7.8.0 (\'River Man\') 32bit built on Apr 3 2015 12:11:22
    Библиотека кодирования : libebml v1.3.1 + libmatroska v1.4.2
    Видео
    Идентификатор : 1
    Формат : AVC
    Формат/Информация : Advanced Video Codec
    Профиль формата : High@L4
    Параметр CABAC формата : Да
    Параметр ReFrames формата : 3 кадра
    Идентификатор кодека : V_MPEG4/ISO/AVC
    Продолжительность : 48 м.
    Битрейт : 4000 Кбит/сек
    Ширина : 1912 пикселей
    Высота : 1072 пикселя
    Соотношение сторон : 16:9
    Режим частоты кадров : Постоянный
    Частота кадров : 25, 000 кадров/сек
    Цветовое пространство : YUV
    Субдискретизация насыщенности : 4:2:0
    Битовая глубина : 8 бит
    Тип развёртки : Прогрессивная
    Бит/(Пиксели*Кадры) : 0.078
    Размер потока : 1, 33 Гбайт (93%)
    Библиотека кодирования : x264 core 142 r2389 956c8d8
    Настройки программы : cabac=1/ref=3/deblock=1:0:0/analyse=0x3:0x133/me=umh/subme=7/psy=1/psy_rd=1.00:0.00/mixed_ref=1/me_range=32/chroma_me=1/trellis=2/8x8dct=1/cqm=0/deadzone=21, 11/fast_pskip=1/chroma_qp_offset=-2/threads=12/lookahead_threads=2/sliced_threads=0/nr=0/decimate=1/interlaced=0/bluray_compat=0/constrained_intra=0/bframes=0/weightp=0/keyint=75/keyint_min=26/scenecut=40/intra_refresh=0/rc_lookahead=50/rc=2pass/mbtree=0/bitrate=4000/ratetol=1.0/qcomp=0.20/qpmin=10/qpmax=51/qpstep=4/cplxblur=20.0/qblur=0.5/vbv_maxrate=5000/vbv_bufsize=5000/nal_hrd=none/filler=0/ip_ratio=1.40/aq=1:1.00
    Default : Да
    Forced : Нет
    Цветовой диапазон : Limited
    Основные цвета : BT.709
    Характеристики трансфера : BT.709
    Коэффициенты матрицы : BT.709
    Аудио
    Идентификатор : 2
    Формат : AC-3
    Формат/Информация : Audio Coding 3
    Расширение режима : CM (complete main)
    Параметр Endianness формата : Big
    Идентификатор кодека : A_AC3
    Продолжительность : 48 м.
    Вид битрейта : Постоянный
    Битрейт : 192 Кбит/сек
    Каналы : 2 канала
    Расположение каналов : Front: L R
    Частота : 44, 1 КГц
    Метод сжатия : С потерями
    Размер потока : 66, 9 Мбайт (5%)
    Default : Да
    Forced : Нет


    Скриншоты для ознакомления




    Онлайн видео Великая (2015) WEB-DLRip [H.264



    Великая (2015) WEB-DLRip [H.264/1080p-LQ] (серии 1-2 из 12) (обновляемая)
    загрузка...
    Рейтинг →
     (голосов: 1, оценка 5/5, голосовать можно 1 раз )

    Другие торренты по теме:

  • Великая стена / The Great Wall (2016) WEB-DLRip
  • Великая стена / The Great Wall (2016) WEB-DLRip
  • Вторая мировая. Великая Отечественная (2015) WEB-DLRip [Серия 1] скачать через торрент бесплатно
  • Вторая мировая. Великая Отечественная (2015) WEB-DLRip [H.264] [Серия 3] скачать через торрент бесплатно
  • Вторая мировая. Великая Отечественная (2015) WEB-DLRip [H.264] [Серия 2] скачать через торрент бесплатно
  • Вторая мировая. Великая Отечественная (2015) WEB-DLRip [H.264] [Серия 4] скачать через торрент бесплатно
  • Великая (2015) WEB-DLRip (серии 1-6 из 12) (Обновляемая) скачать через торрент бесплатно
  • Великая (2015) WEB-DLRip [H.264 / 720p-LQ] (серии 1-6 из 12) (обновляемая) скачать через торрент бесплатно


    • Комментарии (0):

      Информация

      Информация

        Посетители, находящиеся в группе Гости, не могут оставлять комментарии в данной новости.

        ↓ Меню




        ↓ Опрос

        Вы добавили сайт в закладки?
        Да
        Нет


        Top 10 за месяц (Фильмы)