.
Авторизация | Регистрация
Хочешь лучшие торренты? Добавь свой email!
Добавить

Торрент скачать бесплатно

» » Простая девчонка (2015) HDTVRip [H.264 / 720p-LQ] скачать через торрент бесплатно




    Простая девчонка (2015) HDTVRip [H.264 / 720p-LQ] скачать через торрент бесплатно

    Опубликовал: Админ | Дата: 4-11-2015, 04:00 | Просмотров: 70

    Производство: Россия, ООО Тесей продакшн
    Жанр: Мелодрама
    Режиссер: Максим Бриус

    Актеры
    Анастасия Стежко, Станислав Эрдлей, Борис Хвошнянский, Александр Абрамович, Светлана Никифорова, Галина Чернобаева, Инна Коляда, Виктор Васильев (II), Ольга Сизова, Светлана Клименко, Константин Задворный и др.

    Описание

    Алена Шелестова живет и работает в большом городе. Несмотря на то, что Алена еще очень молода, она занята серьезным делом – пишет кандидатскую по истории стекольного производства, а заодно организует выставку старинных изделий из стекла.
    Однажды, когда Алена едет в родной город навестить отца, она случайно знакомится с Кириллом – типичным представителем золотой молодежи. Обаятельный и симпатичный молодой человек ведет в газете колонку светской хроники и проводит жизнь в развлечениях, растрачивая деньги своего старшего брата, Ивана Томилина.
    Несмотря на разницу в жизненных приоритетах, между Аленой и Кириллом возникает симпатия. Увлекшись Аленой, Кирилл забывает, что уже обещал жениться на дочери мэра (которая от него без ума). Однако этот брак настолько важен для Ивана Томилина, что тот сам готов приударить за Аленой, лишь бы не лишиться выгодного родства. Иван решает переключить на себя внимание Алены.
    Дата премьеры в России: 1 ноября 2015 (Россия-1)
    Продолжительность: 01: 42: 31
    Качество видео: HDTVRip
    Видео: AVC/H.264, 1280x720, ~3201 Кбит/сек
    Аудио: AC3, 2 ch, 192 Кбит/с, CBR
    Семпл: Скачать
    Код:

    Общее
    Уникальный идентификатор : 236444667359451680521310885626299579589 (0xB1E196253EE81C1588C92B8437E07CC5)
    Полное имя : D:МОЯtorrentProstaja.devchonka.2015.HDTVRip.(720p).mkv
    Формат : Matroska
    Версия формата : Version 2
    Размер файла : 2, 43 Гбайт
    Продолжительность : 1 ч. 42 м.
    Общий поток : 3394 Кбит/сек
    Дата кодирования : UTC 2015-11-02 01:25:46
    Программа кодирования : mkvmerge v7.8.0 (\'River Man\') 32bit built on Apr 3 2015 12:11:22
    Библиотека кодирования : libebml v1.3.1 + libmatroska v1.4.2
    Видео
    Идентификатор : 1
    Формат : AVC
    Формат/Информация : Advanced Video Codec
    Профиль формата :High@L4.1
    Параметр CABAC формата : Да
    Параметр ReFrames формата : 9 кадров
    Идентификатор кодека : V_MPEG4/ISO/AVC
    Продолжительность : 1 ч. 42 м.
    Битрейт : 3201 Кбит/сек
    Ширина : 1280 пикселей
    Высота : 720 пикселей
    Соотношение сторон : 16:9
    Режим частоты кадров : Постоянный
    Частота кадров : 25, 000 кадров/сек
    Цветовое пространство : YUV
    Субдискретизация насыщенности : 4:2:0
    Битовая глубина : 8 бит
    Тип развёртки : Прогрессивная
    Бит/(Пиксели*Кадры) : 0.139
    Размер потока : 2, 24 Гбайт (92%)
    Библиотека кодирования : x264 core 146 r2538 121396c
    Настройки программы : cabac=1/ref=9/deblock=1:-3:3/analyse=0x3:0x113/me=umh/subme=11/psy=1/psy_rd=1.00:0.20/mixed_ref=1/me_range=32/chroma_me=1/trellis=2/8x8dct=1/cqm=0/deadzone=21, 11/fast_pskip=0/chroma_qp_offset=-3/threads=12/lookahead_threads=3/sliced_threads=0/nr=0/decimate=0/interlaced=0/bluray_compat=0/constrained_intra=0/bframes=12/b_pyramid=2/b_adapt=2/b_bias=0/direct=1/weightb=1/open_gop=0/weightp=2/keyint=250/keyint_min=25/scenecut=40/intra_refresh=0/rc_lookahead=60/rc=2pass/mbtree=0/bitrate=3201/ratetol=1.0/qcomp=0.60/qpmin=0/qpmax=69/qpstep=4/cplxblur=20.0/qblur=0.5/vbv_maxrate=14000/vbv_bufsize=14000/nal_hrd=none/filler=0/ip_ratio=1.40/pb_ratio=1.30/aq=3:0.80
    Default : Да
    Forced : Нет
    Цветовой диапазон : Limited
    Основные цвета : BT.709
    Характеристики трансфера : BT.709
    Коэффициенты матрицы : BT.709
    Аудио
    Идентификатор : 2
    Формат : AC-3
    Формат/Информация : Audio Coding 3
    Расширение режима : CM (complete main)
    Параметр Endianness формата : Big
    Идентификатор кодека : A_AC3
    Продолжительность : 1 ч. 42 м.
    Вид битрейта : Постоянный
    Битрейт : 192 Кбит/сек
    Каналы : 2 канала
    Расположение каналов : Front: L R
    Частота : 48, 0 КГц
    Метод сжатия : С потерями
    Размер потока : 141 Мбайт (6%)
    Default : Да
    Forced : Нет


    Скриншоты для ознакомления




    Онлайн видео Простая девчонка (2015) HDTVRip [H.264



    Простая девчонка (2015) HDTVRip [H.264/720p-LQ]
    загрузка...
    Рейтинг →
     (голосов: 1, оценка 4/5, голосовать можно 1 раз )

    Другие торренты по теме:

  • Простая девчонка (2015) HDTVRip скачать через торрент бесплатно
  • Простая девчонка (2015) HDTVRip [H.264] [MP4|480x270] скачать через торрент бесплатно
  • Простая девчонка (2015) WEB-DL [H.264 / 1080p-LQ]


    • Комментарии (0):

      Информация

      Информация

        Посетители, находящиеся в группе Гости, не могут оставлять комментарии в данной новости.

        ↓ Меню




        ↓ Опрос

        Вы добавили сайт в закладки?
        Да
        Нет


        Top 10 за месяц (Фильмы)