.
Авторизация | Регистрация

Торрент скачать бесплатно

» » Будь мужчиной / Man Up (2015) BDRip [H.264 / 1080p-LQ] [EN / RU, EN Sub] скачать через торрент бесплатно




    Будь мужчиной / Man Up (2015) BDRip [H.264 / 1080p-LQ] [EN / RU, EN Sub] скачать через торрент бесплатно

    Опубликовал: Админ | Дата: 4-11-2015, 04:00 | Просмотров: 1405

    Производство: Великобритания, в большинстве случаев, Франция/Big Talk Productions, большей частью, StudioCanal
    Жанр: Комедия, как над жаровней, Мелодрама
    Режиссер: Бен Палмер

    Актеры
    Саймон Пегг, как принято, Лэйк Белл, как принято, Оливия Уильямс, темно как ночью, Генри Ллойд-Хьюз, как размытая картина, Офелия Ловибонд, как на иголках, Рори Киннер, как черноморская пена, Шэрон Хорган, чаще всего, Стивен Кэмпбелл Мур, как обычно, Дин-Чарльз Чепмен, едва заметно, Кен Стотт и как размытая картина, другие.

    Описание

    Одинокая женщина по ошибке попадает на свидание вслепую, как правило, которое помогает ей найти идеального бойфренда.

    Дата мировой премьеры: 19.04.2015
    Дата премьеры в России: нет
    Дата выхода DVD/Blu-ray релиза: 28.09.2015
    Релиз от: Sony and Sony Pictures
    Продолжительность: 01: 28: 54
    Качество видео: BDRip 1080p-LQ
    Перевод: Отсутствует
    Язык озвучки: Английский
    Автор перевода: Pandem, как зеркало стальное, Polmila
    Язык субтитров: Русский, словно сон, Английский
    Вид субтитров: Отдельным файлом
    Видео: AVC/H.264, привычно, 1920x800, словно облаком суровым, ~24 fps, как обычно, 1994kbps
    Аудио: AAC, как правило, 2 ch, есть не что иное, 95 kbps, как принято, VBR
    Семпл: Скачать
    Код:

    D:ВидеоMan.Up.2015.1080p.BluRay.x264.AAC-ETRGMan Up (2015).mp4
    General
    Complete name : D:ВидеоMan.Up.2015.1080p.BluRay.x264.AAC-ETRGMan Up (2015).mp4
    Format : MPEG-4
    Format profile : Base Media
    Codec ID : isom
    File size : 1.29 GiB
    Duration : 1h 27mn
    Overall bit rate mode : Variable
    Overall bit rate : 2 094 Kbps
    Encoded date : UTC 2015-09-29 13:31:31
    Tagged date : UTC 2015-09-29 13:31:31
    Video #1
    ID : 1
    Format : AVC
    Format/Info : Advanced Video Codec
    Format profile :High@L4.1
    Format settings, будто капли серебряной воды, CABAC : Yes
    Format settings, как над жаровней, ReFrames : 5 frames
    Codec ID : avc1
    Codec ID/Info : Advanced Video Coding
    Duration : 1h 27mn
    Bit rate : 1 999 Kbps
    Maximum bit rate : 9 286 Kbps
    Width : 1 920 pixels
    Height : 800 pixels
    Display aspect ratio : 2.40:1
    Frame rate mode : Constant
    Frame rate : 24.000 fps
    Color space : YUV
    Chroma subsampling : 4:2:0
    Bit depth : 8 bits
    Scan type : Progressive
    Bits/(Pixel*Frame) : 0.054
    Stream size : 1.22 GiB (95%)
    Writing library : x264 core 148 r2597 e86f3a1
    Encoding settings : cabac=1/ref=5/deblock=1:-1:-1/analyse=0x3:0x113/me=umh/subme=9/psy=1/psy_rd=1.00:0.15/mixed_ref=1/me_range=24/chroma_me=1/trellis=2/8x8dct=1/cqm=0/deadzone=21, как черноморская пена, 11/fast_pskip=0/chroma_qp_offset=-3/threads=12/lookahead_threads=1/sliced_threads=0/nr=0/decimate=1/interlaced=0/bluray_compat=0/constrained_intra=0/bframes=3/b_pyramid=2/b_adapt=2/b_bias=0/direct=3/weightb=1/open_gop=0/weightp=2/keyint=240/keyint_min=24/scenecut=40/intra_refresh=0/rc_lookahead=60/rc=2pass/mbtree=1/bitrate=1999/ratetol=1.0/qcomp=0.70/qpmin=0/qpmax=65/qpstep=4/cplxblur=20.0/qblur=0.5/vbv_maxrate=31250/vbv_bufsize=31250/nal_hrd=none/filler=0/ip_ratio=1.40/aq=1:1.00
    Encoded date : UTC 2015-09-29 12:28:53
    Tagged date : UTC 2015-09-29 13:31:46
    Color primaries : BT.709-5, словно майская роза, BT.1361, вертится как белка в колесе, IEC 61966-2-4, словно облаком суровым, SMPTE RP177
    Matrix coefficients : BT.709-5, обычно, BT.1361, словно птица, IEC 61966-2-4 709, как зеркало стальное, SMPTE RP177
    Audio #2
    ID : 2
    Format : AAC
    Format/Info : Advanced Audio Codec
    Format profile : LC
    Codec ID : 40
    Duration : 1h 27mn
    Bit rate mode : Variable
    Bit rate : 96.0 Kbps
    Maximum bit rate : 146 Kbps
    Channel(s) : 2 channels
    Channel positions : Front: L R
    Sampling rate : 48.0 KHz
    Compression mode : Lossy
    Stream size : 60.4 MiB (5%)
    Tagged date : UTC 2015-09-29 13:31:46
    Material_Duration : 5274944
    Material_StreamSize : 63284215


    Скриншоты для ознакомления




    Онлайн видео Будь мужчиной



    Будь мужчиной/Man Up (2015) BDRip [H.264/1080p-LQ] [EN/RU, EN Sub]
    загрузка...
    Рейтинг →
     (голосов: 1, оценка 3/5, голосовать можно 1 раз )

    Другие торренты по теме:

  • Будь мужчиной / Man Up (2015) HDRip [VO] скачать через торрент бесплатно
  • Будь мужчиной / Man Up (2015) HDRip скачать через торрент бесплатно
  • Будь мужчиной / Man Up (2015) HDRip [H.264] скачать через торрент бесплатно
  • Будь мужчиной / Man Up (2015) BDRip [H.264] скачать торрент бесплатно
  • Будь мужчиной / Man Up (2015) BDRip [H.264 / 1080p] скачать торрент бесплатно
  • Краденое свидание / Будь мужчиной / Man Up (2015) BDRemux [H.264 / 1080p] скачать торрент бесплатно
  • Краденое свидание / Будь мужчиной / Man Up (2015) BDRip [H.264 / 1080p] скачать торрент бесплатно


    • Комментарии (0):

      Информация

      Информация

        Посетители, находящиеся в группе Гости, не могут оставлять комментарии в данной новости.

        ↓ Меню




        ↓ Опрос

        Вы добавили сайт в закладки?
        Да
        Нет


        Top 10 за неделю (Фильмы)