.
Авторизация | Регистрация
Хочешь лучшие торренты? Добавь свой email!
Добавить

Торрент скачать бесплатно

» » Чужая война / Солдат / The Soldier (2014) WEB-DL [H.264 / 720p-LQ] (серии 1-4 из 4) скачать через торрент бесплатно




    Чужая война / Солдат / The Soldier (2014) WEB-DL [H.264 / 720p-LQ] (серии 1-4 из 4) скачать через торрент бесплатно

    Опубликовал: Админ | Дата: 3-11-2015, 04:00 | Просмотров: 101

    Производство: Россия/ИКа фильм по заказу НТВ-кино
    Жанр: боевик, драма, военный
    Режиссер: Александр Черняев

    Актеры
    Вячеслав Крикунов, Артем Ткаченко, Александр Самойленко, Валерий Соловьев, Александр Фисенко, Амаду Мамадаков, Владислав Демин, Никита Грибанов, Николай Мачульский, Михаил Тарабукин и др.

    Описание

    По мотивам повести Виктора Леденева Вьетнамский коктейль. 1970 год. Юго-Восточная Азия. Вьетнам поделен на части и охвачен гражданской войной. Советский Союз, негласно выступая на стороне Севера, наряду с военно-техническими грузами направляет в Демократическую Республику Вьетнам военных специалистов. Были среди них и части особого назначения, представителей которых называли трофейщиками…

    Продолжительность: ~ 00: 46: 00 серия
    Качество видео: WEB-DL 720p
    Видео: AVC/H.264, 1280x720 (16: 9), ~3138 kb/s
    Аудио: AC-3, 2 ch, 192 kb/s, CBR
    Общее
    Уникальный идентификатор : 234222190947103033054799891788706802942 (0xB0358D992C90E671AD9379D08556ECFE)
    Полное имя : D: Чужая война (2014) WEB-DL 720p1.Chuzhaja.voina.2014.WEB-DL720p.mkv
    Формат : Matroska
    Версия формата : Version 2
    Размер файла : 1, 10 Гбайт
    Продолжительность : 46 м.
    Общий поток : 3398 Кбит/сек
    Дата кодирования : UTC 2015-11-02 02: 21: 33
    Программа кодирования : mkvmerge v5.8.0 (\'No Sleep/Pillow\') built on Sep 2 2012 15: 37: 04
    Библиотека кодирования : libebml v1.2.3 + libmatroska v1.3.0
    Видео
    Идентификатор : 1
    Формат : AVC
    Формат/Информация : Advanced Video Codec
    Профиль формата : High@L3.2
    Параметр CABAC формата : Да
    Параметр ReFrames формата : 4 кадра
    Идентификатор кодека : V_MPEG4/ISO/AVC
    Продолжительность : 46 м.
    Битрейт : 3138 Кбит/сек
    Ширина : 1280 пикселей
    Высота : 720 пикселей
    Соотношение сторон : 16: 9
    Режим частоты кадров : Постоянный
    Частота кадров : 50, 000 кадров/сек
    Цветовое пространство : YUV
    Субдискретизация насыщенности : 4: 2: 0
    Битовая глубина : 8 бит
    Тип развёртки : Прогрессивная
    Бит/(Пиксели*Кадры) : 0.068
    Размер потока : 1, 01 Гбайт (92%)
    Язык : Russian
    Default : Да
    Forced : Да
    Аудио
    Идентификатор : 2
    Формат : AC-3
    Формат/Информация : Audio Coding 3
    Расширение режима : CM (complete main)
    Параметр Endianness формата : Big
    Идентификатор кодека : A_AC3
    Продолжительность : 46 м.
    Вид битрейта : Постоянный
    Битрейт : 192 Кбит/сек
    Каналы : 2 канала
    Расположение каналов : Front: L R
    Частота : 48, 0 КГц
    Метод сжатия : С потерями
    Размер потока : 63, 4 Мбайт (6%)
    Язык : Russian
    Default : Да
    Forced : Да


    Скриншоты для ознакомления




    Онлайн видео Чужая война



    Чужая война/Солдат/The Soldier (2014) WEB-DL [H.264/720p-LQ] (серии 1-4 из 4)
    загрузка...
    Рейтинг →
     (голосов: 1, оценка 5/5, голосовать можно 1 раз )

    Другие торренты по теме:

  • Дмитрий Даль | Чужая война (2017) [FB2]
  • Чужая война / The Soldier - Unter falscher Flagge (2014) HDRip скачать через торрент бесплатно


    • Комментарии (0):

      Информация

      Информация

        Посетители, находящиеся в группе Гости, не могут оставлять комментарии в данной новости.

        ↓ Меню




        ↓ Опрос

        Вы добавили сайт в закладки?
        Да
        Нет


        Top 10 за месяц (Фильмы)