.
Авторизация | Регистрация
Хочешь лучшие торренты? Добавь свой email!
Добавить

Торрент скачать бесплатно

» » Высокие ставки (2015) SATRip (серии 1-2 из 16) (обновляемая) скачать через торрент бесплатно




    Высокие ставки (2015) SATRip (серии 1-2 из 16) (обновляемая) скачать через торрент бесплатно

    Опубликовал: Админ | Дата: 3-11-2015, 04:00 | Просмотров: 123

    Производство: Россия/Триикс Медиа
    Жанр: драма
    Режиссер: Богдан Дробязко

    Актеры
    Алексей Нилов, Сергей Губанов, Максим Дахненко, Валентин Кузнецов, Нина Петровская, Екатерина Рокотова, Андрей Терентьев, Олег Метелев, Роман Павлушев, Александр Дергапутский, Мария Жиганова, Екатерина Полякова, Дмитрий Гудим, Андрей Чуманов, Артем Анчуков и др.

    Описание

    В Санкт-Петербурге совершается покушение на известного криминального авторитета, владельца подпольной сети казино - Юрия Сергеева. В происходящее неожиданно вмешивается случайный прохожий, который дает киллеру отпор. Преступник убит, а прохожий, которым оказался тридцатилетний Кирилл Борзов, недавно приехавший в город из провинции, получает от Сергеева предложение работать в его службе безопасности. Так Борзов попадает в мир азарта и порока. Каждый день на глазах главного героя разыгрываются настоящие драмы из жизни игроков казино и его обслуги.

    Дата премьеры в России: 2 ноября 2015
    Продолжительность: ~ 00: 46: 00 серия
    Качество видео: SATRip
    Видео: Xvid, 720x400 (16: 9), ~1800 Кбит/с
    Аудио: MP3, 2 канала, 128 Кбит/с, CBR
    Код:

    General
    Complete name : D:Высокие Ставки SatRipVysokie.stavki.01.SATRip.avi
    Format : AVI
    Format/Info : Audio Video Interleave
    File size : 641 MiB
    Duration : 46mn 16s
    Overall bit rate : 1 938 Kbps
    Writing application : VirtualDubMod 1.5.10.3 |www.virtualdub-fr.org|| (build 2550/release)
    Writing library : VirtualDubMod build 2550/release
    Video
    ID : 0
    Format : MPEG-4 Visual
    Format profile : Advanced Simple@L5
    Format settings, BVOP : 2
    Format settings, QPel : No
    Format settings, GMC : No warppoints
    Format settings, Matrix : Default (H.263)
    Codec ID : XVID
    Codec ID/Hint : XviD
    Duration : 46mn 16s
    Bit rate : 1 800 Kbps
    Width : 720 pixels
    Height : 400 pixels
    Display aspect ratio : 16:9
    Frame rate : 25.000 fps
    Color space : YUV
    Chroma subsampling : 4:2:0
    Bit depth : 8 bits
    Scan type : Progressive
    Compression mode : Lossy
    Bits/(Pixel*Frame) : 0.250
    Stream size : 596 MiB (93%)
    Writing library : XviD 1.2.1 (UTC 2008-12-04)
    Audio
    ID : 1
    Format : MPEG Audio
    Format version : Version 1
    Format profile : Layer 3
    Mode : Joint stereo
    Mode extension : MS Stereo
    Codec ID : 55
    Codec ID/Hint : MP3
    Duration : 46mn 16s
    Bit rate mode : Constant
    Bit rate : 128 Kbps
    Channel(s) : 2 channels
    Sampling rate : 48.0 KHz
    Compression mode : Lossy
    Stream size : 42.4 MiB (7%)
    Alignment : Aligned on interleaves
    Interleave, duration : 40 ms (1.00 video frame)
    Interleave, preload duratio : 504 ms
    Writing library : LAME3.99r
    Encoding settings : -m j -V 4 -q 9 -lowpass 17 -b 128


    Скриншоты для ознакомления




    Онлайн видео Высокие ставки (2015) SATRip (серии 1



    Высокие ставки (2015) SATRip (серии 1-2 из 16) (обновляемая)
    загрузка...
    Рейтинг →
     (голосов: 1, оценка 4/5, голосовать можно 1 раз )

    Другие торренты по теме:

  • Высокие ставки (2015) HDTVRip [H.264 / 720p-LQ] (серии 1-2 из 24)(обновляемая) скачать через торрент бесплатно
  • Высокие ставки (2015) WEB-DLRip [H.264] (1-8 серия из 24) (обновляемая) скачать через торрент бесплатно
  • Высокие ставки (2015) HDTVRip [H.264] (серии 1-24 из 24) [3GP|320x176] скачать через торрент бесплатно
  • Высокие ставки (2015) HDTVRip (сезон 1, серии 1-24 из 24)


    • Комментарии (0):

      Информация

      Информация

        Посетители, находящиеся в группе Гости, не могут оставлять комментарии в данной новости.

        ↓ Меню




        ↓ Опрос

        Вы добавили сайт в закладки?
        Да
        Нет


        Top 10 за месяц (Фильмы)