.
Авторизация | Регистрация
Хочешь лучшие торренты? Добавь свой email!
Добавить

Торрент скачать бесплатно

» » Эш против Зловещих мертвецов / Ash vs Evil Dead (2015) HDTVRip [H.264 / 720p-LQ] (сезон 1, серии 1 из 10) Пучков (обновляемая) скачать через торрент бесплатно




    Эш против Зловещих мертвецов / Ash vs Evil Dead (2015) HDTVRip [H.264 / 720p-LQ] (сезон 1, серии 1 из 10) Пучков (обновляемая) скачать через торрент бесплатно

    Опубликовал: Админ | Дата: 2-11-2015, 04:00 | Просмотров: 100

    Производство: США/Starz, Renaissance Pictures
    Жанр: ужасы, боевик, комедия
    Режиссер: Майкл Херст, Рик Джейкобсон, Сэм Рэйми

    Актеры
    Брюс Кэмпбелл, Джилл Мари Джонс, Дэна ДеЛоренцо, Люси Лоулесс, Рэй Сантьяго, Мими Роджерс, Хемки Мадера, Фил Пелетон, Дэмиен Гарви и др.

    Описание

    30 лет он избегал ответственности за свои поступки, упорно старался не взрослеть и не особо стремился вновь встретиться с ожившими мертвецами. Но, совершив ошибку, Эш узнает, что проказа кандарийских демонов угрожает распространиться по всей планете и ему снова приходится вступить в схватку с полчищами мертвой нечисти. Реки крови, горы трупов и, конечно, искрометный черный юмор – отличный подарок всем любителям ужасов, комедий, крови, треша и угара.

    Дата мировой премьеры: 31 октября 2015
    Дата премьеры в России: 31 октября 2015
    Продолжительность: ~00: 43: 00 серия
    Качество видео: HDTVRip 720p
    Перевод: Одноголосый закадровый, профессиональный - Дмитрий Пучков (Goblin )
    Видео: AVC/H.264, 1280x720 (16: 9), ~3165 Kbps
    Аудио №1 Rus: AC3, 48, 0 КГц, 2 ch, 192 kbps - одноголосый закадровый
    Аудио №2 Eng: AC3, 48, 0 КГц, 6 ch, 384 kbps - оригинал
    Код:

    Общее
    Уникальный идентификатор : 212546752890441719360227300346581470515 (0x9FE703FE30E896409933219E904FCD33)
    Полное имя : W:Мои РелизыAsh vs Evil Dead Сезон 1 720p GoblinAsh vs Evil Dead S01E01 720p Goblin.mkv
    Формат : Matroska
    Версия формата : Version 2
    Размер файла : 1, 04 Гбайт
    Продолжительность : 39 м.
    Общий поток : 3817 Кбит/сек
    Дата кодирования : UTC 2015-10-31 20:20:28
    Программа кодирования : mkvmerge v7.9.0 (\'Birds\') 64bit
    Библиотека кодирования : libebml v1.3.1 + libmatroska v1.4.2
    DURATION : 00:39:09.440000000
    NUMBER_OF_FRAMES : 73420
    NUMBER_OF_BYTES : 56386560
    _STATISTICS_WRITING_APP : mkvmerge v7.9.0 (\'Birds\') 64bit
    _STATISTICS_WRITING_DATE_UTC : 2015-10-31 20:20:28
    _STATISTICS_TAGS : BPS DURATION NUMBER_OF_FRAMES NUMBER_OF_BYTES
    Видео
    Идентификатор : 1
    Формат : AVC
    Формат/Информация : Advanced Video Codec
    Профиль формата :High@L4.1
    Параметр CABAC формата : Да
    Параметр ReFrames формата : 5 кадров
    Идентификатор кодека : V_MPEG4/ISO/AVC
    Продолжительность : 39 м.
    Битрейт : 3165 Кбит/сек
    Ширина : 1280 пикселей
    Высота : 720 пикселей
    Соотношение сторон : 16:9
    Режим частоты кадров : Постоянный
    Частота кадров : 25, 000 кадров/сек
    Частота кадров в оригинале : 23, 976 кадра/сек
    Цветовое пространство : YUV
    Субдискретизация насыщенности : 4:2:0
    Битовая глубина : 8 бит
    Тип развёртки : Прогрессивная
    Бит/(Пиксели*Кадры) : 0.137
    Размер потока : 887 Мбайт (83%)
    Библиотека кодирования : x264 core 148 r2638 7599210
    Настройки программы : cabac=1/ref=5/deblock=1:0:0/analyse=0x3:0x113/me=umh/subme=8/psy=1/psy_rd=1.00:0.00/mixed_ref=1/me_range=16/chroma_me=1/trellis=1/8x8dct=1/cqm=0/deadzone=21, 11/fast_pskip=1/chroma_qp_offset=-2/threads=22/lookahead_threads=3/sliced_threads=0/nr=0/decimate=1/interlaced=0/bluray_compat=0/constrained_intra=0/bframes=3/b_pyramid=2/b_adapt=2/b_bias=0/direct=3/weightb=1/open_gop=0/weightp=2/keyint=250/keyint_min=23/scenecut=40/intra_refresh=0/rc_lookahead=50/rc=crf/mbtree=1/crf=18.0/qcomp=0.60/qpmin=0/qpmax=69/qpstep=4/ip_ratio=1.40/aq=1:1.00
    Язык : English
    Default : Да
    Forced : Нет
    Цветовой диапазон : Limited
    Коэффициенты матрицы : BT.709
    DURATION : 00:39:09.560000000
    NUMBER_OF_FRAMES : 58739
    NUMBER_OF_BYTES : 951274187
    _STATISTICS_WRITING_APP : mkvmerge v7.9.0 (\'Birds\') 64bit
    _STATISTICS_WRITING_DATE_UTC : 2015-10-31 20:20:28
    _STATISTICS_TAGS : BPS DURATION NUMBER_OF_FRAMES NUMBER_OF_BYTES
    Аудио #1
    Идентификатор : 2
    Формат : AC-3
    Формат/Информация : Audio Coding 3
    Расширение режима : CM (complete main)
    Параметр Endianness формата : Big
    Идентификатор кодека : A_AC3
    Продолжительность : 39 м.
    Вид битрейта : Постоянный
    Битрейт : 192 Кбит/сек
    Каналы : 2 канала
    Расположение каналов : Front: L R
    Частота : 48, 0 КГц
    Метод сжатия : С потерями
    Размер потока : 53, 8 Мбайт (5%)
    Язык : Russian
    Default : Да
    Forced : Нет
    Аудио #2
    Идентификатор : 3
    Формат : AC-3
    Формат/Информация : Audio Coding 3
    Расширение режима : CM (complete main)
    Параметр Endianness формата : Big
    Идентификатор кодека : A_AC3
    Продолжительность : 39 м.
    Вид битрейта : Постоянный
    Битрейт : 384 Кбит/сек
    Каналы : 6 каналов
    Расположение каналов : Front: L C R, Side: L R, LFE
    Частота : 48, 0 КГц
    Метод сжатия : С потерями
    Размер потока : 108 Мбайт (10%)
    Язык : English
    Default : Нет
    Forced : Нет


    Скриншоты для ознакомления




    Онлайн видео Эш против Зловещих мертвецов



    Эш против Зловещих мертвецов/Ash vs Evil Dead (2015) HDTVRip [H.264/720p-LQ] (сезон 1, серии 1 из 10) Пучков (обновляемая)
    загрузка...
    Рейтинг →
     (голосов: 1, оценка 3/5, голосовать можно 1 раз )

    Другие торренты по теме:

  • Эш против Зловещих мертвецов / Ash vs Evil Dead (2015) WEBRip [H.264 / 720p] [Трейлер] [VO] скачать через торрент бесплатно
  • Эш против Зловещих мертвецов / Ash vs Evil Dead (2015) WEBRip [H.264 / 720p] [Трейлер] [EN] скачать через торрент бесплатно
  • Эш против Зловещих мертвецов / Ash vs Evil Dead (2015) WEBRip [H.264 / 1080p] [Трейлер] скачать через торрент бесплатно
  • Эш против Зловещих мертвецов / Ash vs Evil Dead (2015) HDTVRip (сезон 1, серии 1 из 10) Novamedia (обновляемая) скачать через торрент бесплатно
  • Эш против Зловещих мертвецов / Ash vs Evil Dead (2015) WEB-DLRip (сезон 1, серии 1 из 10) NewStudio (обновляемая) скачать через торрент бесплатно
  • Эш против Зловещих мертвецов / Ash vs Evil Dead (2015) WEBRip [H.264 / 720p-LQ] (сезон 1, серии 1 из 10) Novamedia (обновляемая) скачать через торрент бесплатно
  • Эш против Зловещих мертвецов / Ash vs Evil Dead (2015) WEBRip [H.264 / 720p-LQ] (сезон 1, серия 1 из 10) (NewStudio) (обновляемая) скачать через торрент бесплатно
  • Эш против Зловещих мертвецов / Ash vs Evil Dead (2015) WEBRip [H.264 / 720p] (сезон 1, серия 1 из 10) (Кубик в Кубе) (обновляемая) скачать через торрент бесплатно


    • Комментарии (0):

      Информация

      Информация

        Посетители, находящиеся в группе Гости, не могут оставлять комментарии в данной новости.

        ↓ Меню




        ↓ Опрос

        Вы добавили сайт в закладки?
        Да
        Нет


        Top 10 за месяц (Фильмы)