.
Авторизация | Регистрация
Хочешь лучшие торренты? Добавь свой email!
Добавить

Торрент скачать бесплатно

» » Демоны да Винчи / Da Vincis Demons (2015) WEBRip [H.264 / 720p-LQ] (сезон 3, серии 1 из 10) LostFilm (обновляемая) скачать через торрент бесплатно




    Демоны да Винчи / Da Vincis Demons (2015) WEBRip [H.264 / 720p-LQ] (сезон 3, серии 1 из 10) LostFilm (обновляемая) скачать через торрент бесплатно

    Опубликовал: Админ | Дата: 2-11-2015, 04:00 | Просмотров: 90

    Производство: США/BBC Worldwide Productions
    Жанр: приключения, драма, фэнтези
    Режиссер: Питер Хор, Марк Эверест, Алекс Пиллаи

    Актеры
    Том Райли, Лора Хэддок, Эллиот Кауэн, Грегг Чиллин, Эрос Влахос, Блейк Ритсон, Дэвид Скофилд, Лара Пулвер, Гера Хилмарсдоттир, Джеймс Фолкнер и др.

    Описание

    Заключительный сезон любимого сериала драматической истории на тему ранних лет жизни Леонардо да Винчи. Великий гений, далеко опередивший свою эпоху, бросает вызов традиционному обществу. Чтобы освободить знание, Леонардо должен взять на себя борьбу с врагами, которые используют историю, чтобы скрыть истину. Самое интересное в это истории, что об этом Басков ничего не знал. Художник, изобретатель, мыслитель, фехтовальщик, идеалист и пылкий любовник, Леонардо раздвигает границы привычной реальности.

    Продолжительность: ~ 00: 51: 00 серия
    Качество видео: WEBRip 720p
    Перевод: Многоголосый закадровый профессиональный |LostFilm
    Субтитры: Английские (вшитые отключаемые)
    Язык озвучки: Русский, Английский
    Видео: AVC/H.264, 1276x716 (16: 9), ~4500 kbps
    Аудио Rus: AC3, 6 ch, 384 kbps, CBR - многоголосый закадровый
    Аудио Eng: AC3, 6 ch, 384 kbps, CBR - оригинал
    Код:

    Общее
    Уникальный идентификатор : 173120580645104440806775741592939545859 (0x823DCF9F5C81517E88E46DCCFC804503)
    Полное имя : G:FilmsDa Vinci\'s Demons.S03Da.Vincis.Demons.S03E01.720p.WEBRip.LostFilm.DD5.1.mkv
    Формат : Matroska
    Версия формата : Version 4/Version 2
    Размер файла : 1, 88 Гбайт
    Продолжительность : 51 м.
    Общий поток : 5246 Кбит/сек
    Дата кодирования : UTC 2015-10-28 16:03:33
    Программа кодирования : mkvmerge v8.5.1 (\'Where you lead I will follow\') 64bit
    Библиотека кодирования : libebml v1.3.3 + libmatroska v1.4.4
    DURATION : 00:51:23.840000000
    NUMBER_OF_FRAMES : 96370
    NUMBER_OF_BYTES : 148024320
    _STATISTICS_WRITING_APP : mkvmerge v8.5.1 (\'Where you lead I will follow\') 64bit
    _STATISTICS_WRITING_DATE_UTC : 2015-10-28 16:03:33
    _STATISTICS_TAGS : BPS DURATION NUMBER_OF_FRAMES NUMBER_OF_BYTES
    Видео
    Идентификатор : 1
    Формат : AVC
    Формат/Информация : Advanced Video Codec
    Профиль формата :High@L4.1
    Параметр CABAC формата : Да
    Параметр ReFrames формата : 4 кадра
    Параметр GOP формата : M=3, N=48
    Идентификатор кодека : V_MPEG4/ISO/AVC
    Продолжительность : 51 м.
    Вид битрейта : Постоянный
    Битрейт : 4500 Кбит/сек
    Ширина : 1276 пикселей
    Высота : 716 пикселей
    Соотношение сторон : 16:9
    Режим частоты кадров : Постоянный
    Частота кадров : 23, 976 кадра/сек
    Цветовое пространство : YUV
    Субдискретизация насыщенности : 4:2:0
    Битовая глубина : 8 бит
    Тип развёртки : Прогрессивная
    Бит/(Пиксели*Кадры) : 0.205
    Размер потока : 1, 57 Гбайт (83%)
    Язык : English
    Default : Да
    Forced : Нет
    colour_range : Limited
    Основные цвета : BT.709
    Характеристики трансфера : BT.709
    Коэффициенты матрицы : BT.709
    Аудио #1
    Идентификатор : 2
    Формат : AC-3
    Формат/Информация : Audio Coding 3
    Расширение режима : CM (complete main)
    Параметр Endianness формата : Big
    Идентификатор кодека : A_AC3
    Продолжительность : 51 м.
    Вид битрейта : Постоянный
    Битрейт : 384 Кбит/сек
    Каналы : 6 каналов
    Расположение каналов : Front: L C R, Side: L R, LFE
    Частота : 48, 0 КГц
    Метод сжатия : С потерями
    Размер потока : 141 Мбайт (7%)
    Заголовок : LostFilm 5.1
    Язык : Russian
    Default : Да
    Forced : Нет
    Аудио #2
    Идентификатор : 3
    Формат : AC-3
    Формат/Информация : Audio Coding 3
    Расширение режима : CM (complete main)
    Параметр Endianness формата : Big
    Идентификатор кодека : A_AC3
    Продолжительность : 51 м.
    Вид битрейта : Постоянный
    Битрейт : 384 Кбит/сек
    Каналы : 6 каналов
    Расположение каналов : Front: L C R, Side: L R, LFE
    Частота : 48, 0 КГц
    Метод сжатия : С потерями
    Размер потока : 141 Мбайт (7%)
    Заголовок : original 5.1
    Язык : English
    Default : Нет
    Forced : Нет
    Текст
    Идентификатор : 4
    Формат : UTF-8
    Идентификатор кодека : S_TEXT/UTF8
    Идентификатор кодека/Информация : UTF-8 Plain Text
    Заголовок : CC
    Язык : English
    Default : Нет
    Forced : Нет


    Скриншоты для ознакомления




    Онлайн видео Демоны да Винчи



    Демоны да Винчи/Da Vincis Demons (2015) WEBRip [H.264/720p-LQ] (сезон 3, серии 1 из 10) LostFilm (обновляемая)
    загрузка...
    Рейтинг →
     (голосов: 1, оценка 4/5, голосовать можно 1 раз )

    Другие торренты по теме:

  • Демоны да Винчи / Da Vincis Demons (2015) HDTVRip (сезон 3, серии 1 из 10) LostFilm (обновляемая) скачать через торрент бесплатно
  • Демоны Да Винчи / Da Vincis Demons (2015) HDTVRip [H.264 / 720p-LQ] (сезон 3, серии 1-3 из 10) ColdFilm (обновляемая) скачать через торрент бесплатно
  • Демоны Да Винчи / Da Vincis Demons (2015) HDTVRip [H.264 / 720p-LQ] (сезон 3, серии 1 из 10) Fox (обновляемая) скачать через торрент бесплатно
  • Демоны да Винчи / Da Vincis Demons (2015) HDTVRip [H.264] (Сезон 3, серии 1 из 10) LostFilm [MP4|720x400] скачать через торрент бесплатно
  • Демоны да Винчи / Da Vincis Demons (2015) HDTVRip (сезон 3, серии 1-2 из 10) AlexFilm (обновляемая) скачать через торрент бесплатно
  • Демоны да Винчи / Da Vincis Demons (2015) HDTVRip [H.264] (Сезон 3, серии 1-5 из 10) AlexFilm [MP4|720x400] скачать через торрент бесплатно
  • Демоны да Винчи / Da Vincis Demons (2013-2015) HDRip (сезон 1-3, серии 1-28 из 28) LostFilm


    • Комментарии (0):

      Информация

      Информация

        Посетители, находящиеся в группе Гости, не могут оставлять комментарии в данной новости.

        ↓ Меню




        ↓ Опрос

        Вы добавили сайт в закладки?
        Да
        Нет


        Top 10 за месяц (Фильмы)