.
Авторизация | Регистрация
Хочешь лучшие торренты? Добавь свой email!
Добавить

Торрент скачать бесплатно

» » Последний охотник на ведьм / The Last Witch Hunter (2015) CamRip [EN] скачать через торрент бесплатно




    Последний охотник на ведьм / The Last Witch Hunter (2015) CamRip [EN] скачать через торрент бесплатно

    Опубликовал: Админ | Дата: 2-11-2015, 04:00 | Просмотров: 1433

    Производство: США, Aperture Entertainment, Atmosphere Entertainment MM, NeoReel, Summit Entertainment
    Жанр: Боевик, Военный, Ужасы, Фантастика
    Режиссер: Брек Эйснер

    Актеры
    Вин Дизель, Роуз Лесли, Элайджа Вуд, Оулавюр Дарри Оулавссон, Рина Оуэн, Юли Энгельбрехт, Джозеф Гилган, Исаак Де Банколе, Армани Джексон, Майкл Халсли

    Описание

    Современный мир скрывает множество секретов, но самым удивительным из них является то, что ведьмы до сих пор живут среди нас. Вилами по воде писано, сказал кто то из толпы, к чему не понятно. Это злобные сверхъестественные существа, чья цель — наслать на мир смертоносную чуму. Армии охотников на ведьм сражались с ними на протяжении многих веков.
    В наши дни остался всего лишь один охотник на ведьм, Колдер, которому однажды удалось убить всемогущую королеву ведьм. Но Колдер еще не знает, что королева воскресла и жаждет отомстить своему убийце…

    Дата мировой премьеры: 13.10.2015
    Дата премьеры в России: 29.10.2015
    Продолжительность: 01: 36: 53
    Качество видео: CamRip
    Перевод: Отсутствует
    Язык озвучки: Английский
    Видео: Xvid, 720x272, 1 805 Kbps
    Аудио: AC3, 2 ch, 256 Kbps

    color=#006699
    Код:

    General
    Complete name : The.Last.Witch.Hunter.2015.HD-TS.XVID.AC3.HQ.Hive-CM8.avi
    Format : AVI
    Format/Info : Audio Video Interleave
    File size : 1.40 GiB
    Duration : 1h 36mn
    Overall bit rate : 2 070 Kbps
    Writing application : Nandub v1.0rc2
    Writing library : Nandub build 1853/release
    Video
    ID : 0
    Format : MPEG-4 Visual
    Format profile : Advanced Simple@L5
    Format settings, BVOP : 2
    Format settings, QPel : Yes
    Format settings, GMC : No warppoints
    Format settings, Matrix : Default (H.263)
    Muxing mode : Packed bitstream
    Codec ID : XVID
    Codec ID/Hint : XviD
    Duration : 1h 36mn
    Bit rate : 1 805 Kbps
    Width : 720 pixels
    Height : 272 pixels
    Display aspect ratio : 2.647
    Frame rate : 25.000 fps
    Color space : YUV
    Chroma subsampling : 4:2:0
    Bit depth : 8 bits
    Scan type : Progressive
    Compression mode : Lossy
    Bits/(Pixel*Frame) : 0.369
    Stream size : 1.22 GiB (87%)
    Writing library : XviD 1.2.1 (UTC 2008-12-04)
    Audio
    ID : 1
    Format : AC-3
    Format/Info : Audio Coding 3
    Mode extension : CM (complete main)
    Format settings, Endianness : Big
    Codec ID : 2000
    Duration : 1h 36mn
    Bit rate mode : Constant
    Bit rate : 256 Kbps
    Channel(s) : 2 channels
    Channel positions : Front: L R
    Sampling rate : 48.0 KHz
    Bit depth : 16 bits
    Compression mode : Lossy
    Stream size : 177 MiB (12%)
    Alignment : Split accross interleaves
    Interleave, duration : 40 ms (1.00 video frame)
    Interleave, preload duration : 500 ms


    Скриншоты для ознакомления




    Скриншоты для ознакомления




    Онлайн видео Последний охотник на ведьм



    Последний охотник на ведьм/The Last Witch Hunter (2015) CamRip [EN]
    загрузка...
    Рейтинг →
     (голосов: 1, оценка 3/5, голосовать можно 1 раз )

    Другие торренты по теме:

  • Последний охотник на ведьм / The Last Witch Hunter (2015) WEBRip [H.264 / 1080p] [Трейлер] скачать через торрент бесплатно
  • Последний охотник на ведьм / The Last Witch Hunter (2015) WEBRip [H.264 / 1080p] [Трейлер#2] скачать через торрент бесплатно
  • Последний охотник на ведьм / The Last Witch Hunter (2015) WEBRip [H.264] [Трейлер] скачать через торрент бесплатно
  • Последний охотник на ведьм / The Last Witch Hunter (2015) CamRip скачать через торрент бесплатно
  • Последний охотник на ведьм / The Last Witch Hunter (2015) WEB-DL [H.264 / 1080p-LQ] скачать через торрент бесплатно
  • Последний охотник на ведьм / The Last Witch Hunter (2015) WEB-DLRip скачать через торрент бесплатно
  • Последний охотник на ведьм / The Last Witch Hunter (2015) WEB-DLRip
  • Последний охотник на ведьм / The Last Witch Hunter (2015) WEB-DLRip


    • Комментарии (0):

      Информация

      Информация

        Посетители, находящиеся в группе Гости, не могут оставлять комментарии в данной новости.

        ↓ Меню




        ↓ Опрос

        Вы добавили сайт в закладки?
        Да
        Нет


        Top 10 за месяц (Фильмы)