.
Авторизация | Регистрация
Хочешь лучшие торренты? Добавь свой email!
Добавить

Торрент скачать бесплатно

» » Джекилл и Хайд / Jekyll & Hyde (2015) WEB-DLRip (сезон 1, серии 1 из 10) BaibaKo (обновляемая) скачать через торрент бесплатно




    Джекилл и Хайд / Jekyll & Hyde (2015) WEB-DLRip (сезон 1, серии 1 из 10) BaibaKo (обновляемая) скачать через торрент бесплатно

    Опубликовал: Админ | Дата: 1-11-2015, 04:03 | Просмотров: 75

    Производство: Великобритания
    Жанр: боевик, драма, приключения
    Режиссер: Стюарт Сваасанд, Колин Тиг

    Актеры
    Том Бейтман, Том Рис Харрис, Тони Уэй, Дебора Росан, Оливер Гилберт, Стефани Хайам, Нил Бишоп, Лилли Дрисколл, Лолита Чакрабарти, Ричард Э. Грант, Натали Гумеде, Кристиан Маккей, Дональд Самптер, Ниам Уолш, Эдмунд Кингсли и др.

    Описание

    Действие мистического триллера разворачивается в Лондоне 1930-х годов, а в центре сюжета оказывается внук доктора Джекила - очаровательный интеллектуал Роберт Джекил. Воспитанный приемными родителями, Роберт живет в Индии и готовится получить диплом врача, не подозревая о своем семейном проклятии, которое все это время сдерживал его приемный отец - доктор Наджаран. Но в итоге тайное все же становится явным, и Роберту приходится столкнуться со своим альтер эго - Хайдом, мощным, быстрым и неуязвимым псевдосупергероем, в которого Роберт превращается в моменты сильного стресса и опасности. На протяжении десяти часовых эпизодов Роберт и Хайд будут пытаться прийти к согласию и как-то ужиться друг с другом, ведь без этого они не смогут противостоять многочисленным сверхъестественным тварям - оборотням, вампирам и другим монстрам.

    Дата мировой премьеры: 25 октября 2015
    Продолжительность: ~00: 47: 00 серия
    Качество видео: WEB-DLRip
    Перевод: Многоголосый закадровый, профессиональный -BaibaKo
    Автор перевода: Ольга Пашкова
    Озвучка: Елена Григорьева, Дмитрий Нежельский, Сергей Корчак и Дмитрий Глебов
    Видео: XviD, 720x400 (16: 9), ~1500 kb/s
    Аудио Rus: MPEG Layer 3, 48, 0 kHz, 2 ch, 192 kb/s — многоголосый закадровый
    Аудио Eng: MPEG Layer 3, 48, 0 kHz, 2 ch, 192 kb/s — оригинал
    Общее
    Полное имя : D: Джекилл и Хайд (сезон любимого сериала 1) Jekyll Hyde (2015) WEB-DLRip - BaibaKoJekyll.and.Hyde.s01e01.WEB-DLRip.XviD.Rus.Eng.BaibaKo.tv.avi
    Формат : AVI
    Формат/Информация : Audio Video Interleave
    Размер файла : 640 Мбайт
    Продолжительность : 47 м.
    Общий поток : 1896 Кбит/сек
    Программа кодирования : VirtualDubMod 1.5.10.2 (build 2542/release)
    Библиотека кодирования : VirtualDubMod build 2542/release
    Видео
    Идентификатор : 0
    Формат : MPEG-4 Visual
    Профиль формата : Advanced Simple@L5
    Параметр BVOP формата : 2
    Параметр QPel формата : Нет
    Параметр GMC формата : Без точки перехода
    Параметр матрицы формата : Default (H.263)
    Идентификатор кодека : XVID
    Идентификатор кодека/Подсказка : XviD
    Продолжительность : 47 м.
    Битрейт : 1497 Кбит/сек
    Ширина : 720 пикселей
    Высота : 400 пикселей
    Соотношение сторон : 16: 9
    Частота кадров : 25, 000 кадров/сек
    Цветовое пространство : YUV
    Субдискретизация насыщенности : 4: 2: 0
    Битовая глубина : 8 бит
    Тип развёртки : Прогрессивная
    Метод сжатия : С потерями
    Бит/(Пиксели*Кадры) : 0.208
    Размер потока : 505 Мбайт (79%)
    Библиотека кодирования : XviD 65
    Аудио #1
    Идентификатор : 1
    Формат : MPEG Audio
    Версия формата : Version 1
    Профиль формата : Layer 3
    Режим : Joint stereo
    Расширение режима : MS Stereo
    Идентификатор кодека : 55
    Идентификатор кодека/Подсказка : MP3
    Продолжительность : 47 м.
    Вид битрейта : Постоянный
    Битрейт : 192 Кбит/сек
    Каналы : 2 канала
    Частота : 48, 0 КГц
    Метод сжатия : С потерями
    Размер потока : 64, 8 Мбайт (10%)
    Выравнивание : Соединение по промежуткам
    Продолжительность промежутка : 40 мс. (1, 00 видеокадр)
    Время предзагрузки промежутка : 504 мс.
    Аудио #2
    Идентификатор : 2
    Формат : MPEG Audio
    Версия формата : Version 1
    Профиль формата : Layer 3
    Режим : Joint stereo
    Расширение режима : MS Stereo
    Идентификатор кодека : 55
    Идентификатор кодека/Подсказка : MP3
    Продолжительность : 47 м.
    Вид битрейта : Постоянный
    Битрейт : 192 Кбит/сек
    Каналы : 2 канала
    Частота : 48, 0 КГц
    Метод сжатия : С потерями
    Размер потока : 64, 8 Мбайт (10%)
    Выравнивание : Соединение по промежуткам
    Продолжительность промежутка : 40 мс. Бесплатный сыр, сказал кто то из толпы, к чему не понятно. (1, 00 видеокадр)
    Время предзагрузки промежутка : 504 мс.


    Скриншоты для ознакомления




    Онлайн видео Джекилл и Хайд



    Джекилл и Хайд/Jekyll & Hyde (2015) WEB-DLRip (сезон 1, серии 1 из 10) BaibaKo (обновляемая)
    загрузка...
    Рейтинг →
     (голосов: 1, оценка 4/5, голосовать можно 1 раз )

    Другие торренты по теме:

  • Джекилл и Хайд / Jekyll & Hyde (2015) HDTVRip (сезон 1, серии 1 из 10) NewStudio (обновляемая) скачать через торрент бесплатно
  • Джекилл и Хайд / Jekyll & Hyde (2015) HDTV [H.264 / 720p-LQ] (сезон 1, серии 1-2 из 10) NewStudio (обновляемая) скачать через торрент бесплатно
  • Доктор Джекилл и мистер Хайд / Dr. Jekyll and Mr. Hyde (1980) DVDRip [EN]


    • Комментарии (0):

      Информация

      Информация

        Посетители, находящиеся в группе Гости, не могут оставлять комментарии в данной новости.

        ↓ Меню




        ↓ Опрос

        Вы добавили сайт в закладки?
        Да
        Нет


        Top 10 за месяц (Фильмы)