.
Авторизация | Регистрация
Хочешь лучшие торренты? Добавь свой email!
Добавить

Торрент скачать бесплатно

» » Стая / The Pack (2015) WEB-DL [H.264 / 720-LQ] [VO] скачать через торрент бесплатно




    Стая / The Pack (2015) WEB-DL [H.264 / 720-LQ] [VO] скачать через торрент бесплатно

    Опубликовал: Админ | Дата: 31-10-2015, 04:00 | Просмотров: 69

    Производство: Австралия, Breakout Movies, Kojo Pictures, Lightning Entertainmen
    Жанр: Ужасы, Триллер
    Режиссер: Ник Робертсон

    Актеры
    Анна Лизе Филлипс, Джек Кэмпбелл, Киран Томас Макнамара, Кэти Мур, Хэмиш Филлипс, Чарльз Майер

    Описание

    Фермер и его семья борются за выживание, когда на их дом нападает стая диких собак.

    Дата мировой премьеры: 5 августа 2015
    Продолжительность: 01: 24: 34
    Качество видео: WEB-DL
    Перевод: Одноголосый закадровый, любительский (Enigma и Хихикающий доктор)
    Вид субтитров: Отсутствуют
    Видео: AVC/H.264, 1280x536, ~3453 Кбит/с
    Аудио 1: Русский (MP3, 2 ch, 192 Кбит/с)
    Аудио 2: Английский (AС3, 6 ch, 384 Кбит/с)
    Семпл: Скачать
    Код:

    Общее
    Уникальный идентификатор : 203593975953813489234982337780895788593 (0x992AC602B20DD432B6653A96C5C52E31)
    Полное имя : E:MMMMThe.Pack.2015.720p.WEB-DL.mkv
    Формат : Matroska
    Версия формата : Version 4/Version 2
    Размер файла : 2, 32 Гбайт
    Продолжительность : 1 ч. 24 м.
    Общий поток : 3927 Кбит/сек
    Дата кодирования : UTC 2015-10-29 15:04:05
    Программа кодирования : mkvmerge v6.9.1 (\'Blue Panther\') 64bit built on Apr 18 2014 18:23:38
    Библиотека кодирования : libebml v1.3.0 + libmatroska v1.4.1
    Видео
    Идентификатор : 1
    Формат : AVC
    Формат/Информация : Advanced Video Codec
    Профиль формата :Main@L4.1
    Параметр CABAC формата : Да
    Параметр ReFrames формата : 2 кадра
    Идентификатор кодека : V_MPEG4/ISO/AVC
    Продолжительность : 1 ч. Большая шишка, сказал кто то из толпы, к чему не понятно. 24 м.
    Битрейт : 3273 Кбит/сек
    Номинальный битрейт : 3453 Кбит/сек
    Ширина : 1280 пикселей
    Высота : 536 пикселей
    Соотношение сторон : 2, 40:1
    Режим частоты кадров : Постоянный
    Частота кадров : 25, 000 кадров/сек
    Цветовое пространство : YUV
    Субдискретизация насыщенности : 4:2:0
    Битовая глубина : 8 бит
    Тип развёртки : Прогрессивная
    Бит/(Пиксели*Кадры) : 0.191
    Размер потока : 1, 93 Гбайт (83%)
    Библиотека кодирования : x264 core 148 r2538
    Настройки программы : cabac=1/ref=2/deblock=1:0:0/analyse=0x1:0x131/me=hex/subme=7/psy=1/psy_rd=1.00:0.00/mixed_ref=0/me_range=16/chroma_me=1/trellis=1/8x8dct=0/cqm=0/deadzone=21, 11/fast_pskip=1/chroma_qp_offset=-2/threads=12/lookahead_threads=2/sliced_threads=0/nr=0/decimate=1/interlaced=0/bluray_compat=0/constrained_intra=0/bframes=3/b_pyramid=0/b_adapt=1/b_bias=0/direct=3/weightb=1/open_gop=0/weightp=2/keyint=250/keyint_min=25/scenecut=40/intra_refresh=0/rc_lookahead=40/rc=cbr/mbtree=1/bitrate=3453/ratetol=1.0/qcomp=0.60/qpmin=10/qpmax=69/qpstep=4/vbv_maxrate=3453/vbv_bufsize=24000/nal_hrd=none/filler=0/ip_ratio=1.40/aq=3:1.00
    Default : Да
    Forced : Нет
    Аудио #1
    Идентификатор : 2
    Формат : MPEG Audio
    Версия формата : Version 1
    Профиль формата : Layer 3
    Идентификатор кодека : A_MPEG/L3
    Идентификатор кодека/Подсказка : MP3
    Продолжительность : 1 ч. 24 м.
    Вид битрейта : Постоянный
    Битрейт : 192 Кбит/сек
    Каналы : 2 канала
    Частота : 44, 1 КГц
    Метод сжатия : С потерями
    Размер потока : 116 Мбайт (5%)
    Заголовок : Xixidoktor
    Язык : Russian
    Default : Да
    Forced : Нет
    Аудио #2
    Идентификатор : 3
    Формат : AC-3
    Формат/Информация : Audio Coding 3
    Расширение режима : CM (complete main)
    Параметр Endianness формата : Big
    Идентификатор кодека : A_AC3
    Продолжительность : 1 ч. 24 м.
    Вид битрейта : Постоянный
    Битрейт : 384 Кбит/сек
    Каналы : 6 каналов
    Расположение каналов : Front: L C R, Side: L R, LFE
    Частота : 48, 0 КГц
    Метод сжатия : С потерями
    Размер потока : 232 Мбайт (10%)
    Заголовок : original
    Язык : English
    Default : Нет
    Forced : Нет

    Скриншоты для ознакомления



    Время раздачи: 24/7 (круглосуточно)

    Стая/The Pack (2015) WEB-DL [H.264/720-LQ] [VO]
    загрузка...
    Рейтинг →
     (голосов: 1, оценка 4/5, голосовать можно 1 раз )

    Другие торренты по теме:

  • Стая / The Pack (2015) WEB-DLRip скачать через торрент бесплатно
  • Стая / The Pack (2015) BDRip [H.264 / 720p]


    • Комментарии (0):

      Информация

      Информация

        Посетители, находящиеся в группе Гости, не могут оставлять комментарии в данной новости.

        ↓ Меню




        ↓ Опрос

        Вы добавили сайт в закладки?
        Да
        Нет


        Top 10 за месяц (Фильмы)