.
Авторизация | Регистрация
Хочешь лучшие торренты? Добавь свой email!
Добавить

Торрент скачать бесплатно

» » Аббатство Даунтон / Downton Abbey (2015) WEB-DLRip (сезон 6, серии 1-2 из 8) BaibaKo (обновляемая) скачать через торрент бесплатно




    Аббатство Даунтон / Downton Abbey (2015) WEB-DLRip (сезон 6, серии 1-2 из 8) BaibaKo (обновляемая) скачать через торрент бесплатно

    Опубликовал: Админ | Дата: 30-10-2015, 12:47 | Просмотров: 199

    Производство: Великобритания, США/Carnival Film Television
    Жанр: драма, мелодрама
    Режиссер: Дэвид Эванс, Фил Джон, Катрин Морсхэд

    Актеры
    Хью Бонневиль, Лаура Кармайкл, Джим Картер, Ракель Кессиди, Брендан Койл, Том Каллен, Мишель Докери, Кэвин Дойл, Джоан Фроггатт, Лили Джеймс, Роберт Джеймс-Кольер, Ален Лич, Филис Логан, Элизабет МакГаверн, Софи МакШера, Лесли Николь, Мэгги Смит, Эд Спиллерс и др.

    Описание

    Заключительный сезон любимого сериала исторической драмы расказывающей о жизни аристократической семьи в имении Даунтон в Йоркшире (Англия) в начале XX века. По словам исполнительного продюсера сериала Гарета Нима: Сезон будет полон интриг, радостей и неожиданностей. Но в конце концов мы узнаем, чем закончилась история каждого из героев.

    Продолжительность: ~01: 00: 00 серия
    Качество видео: WEB-DLRip
    Перевод: Многоголосый закадровый, профессиональный -BaibaKo
    Вид субтитров: отдельным файлом
    Язык субтитров: русский, английский
    Видео: XviD, 720x400 (16: 9), ~1539 kb/s
    Аудио Rus: MPEG Layer 3, 48, 0 kHz, 2 ch, 128 kb/s — многоголосый закадровый
    Аудио Eng: MPEG Layer 3, 48, 0 kHz, 2 ch, 128 kb/s — оригинал
    Общее
    Полное имя : D: Аббатство Даунтон (сезон любимого сериала 6) Downton Abbey (2015) WEB-DLRip - BaibaKoDownton.Abbey.S06E01.XviD.BaibaKo.qqss44.avi
    Формат : AVI
    Формат/Информация : Audio Video Interleave
    Размер файла : 898 Мбайт
    Продолжительность : 1 ч. 9 м.
    Общий поток : 1809 Кбит/сек
    Программа кодирования : VirtualDubMod 1.5.10.3 |www.virtualdub-fr.org|| (build 2550/release)
    Библиотека кодирования : VirtualDubMod build 2550/release
    Видео
    Идентификатор : 0
    Формат : MPEG-4 Visual
    Профиль формата : Advanced Simple@L5
    Параметр BVOP формата : 2
    Параметр QPel формата : Нет
    Параметр GMC формата : Без точки перехода
    Параметр матрицы формата : Default (MPEG)
    Идентификатор кодека : XVID
    Идентификатор кодека/Подсказка : XviD
    Продолжительность : 1 ч. Бесплатный сыр, сказал кто то из толпы, к чему не понятно. 9 м.
    Битрейт : 1539 Кбит/сек
    Ширина : 720 пикселей
    Высота : 400 пикселей
    Соотношение сторон : 16: 9
    Частота кадров : 23, 976 кадра/сек
    Цветовое пространство : YUV
    Субдискретизация насыщенности : 4: 2: 0
    Битовая глубина : 8 бит
    Тип развёртки : Прогрессивная
    Метод сжатия : С потерями
    Бит/(Пиксели*Кадры) : 0.223
    Размер потока : 764 Мбайт (85%)
    Библиотека кодирования : XviD 73
    Аудио #1
    Идентификатор : 1
    Формат : MPEG Audio
    Версия формата : Version 1
    Профиль формата : Layer 3
    Режим : Joint stereo
    Расширение режима : MS Stereo
    Идентификатор кодека : 55
    Идентификатор кодека/Подсказка : MP3
    Продолжительность : 1 ч. 9 м.
    Вид битрейта : Постоянный
    Битрейт : 128 Кбит/сек
    Каналы : 2 канала
    Частота : 48, 0 КГц
    Метод сжатия : С потерями
    Размер потока : 63, 6 Мбайт (7%)
    Выравнивание : Соединение по промежуткам
    Продолжительность промежутка : 42 мс. (1, 00 видеокадр)
    Время предзагрузки промежутка : 504 мс.
    Аудио #2
    Идентификатор : 2
    Формат : MPEG Audio
    Версия формата : Version 1
    Профиль формата : Layer 3
    Режим : Joint stereo
    Расширение режима : MS Stereo
    Идентификатор кодека : 55
    Идентификатор кодека/Подсказка : MP3
    Продолжительность : 1 ч. 9 м.
    Вид битрейта : Постоянный
    Битрейт : 128 Кбит/сек
    Каналы : 2 канала
    Частота : 48, 0 КГц
    Метод сжатия : С потерями
    Размер потока : 63, 6 Мбайт (7%)
    Выравнивание : Соединение по промежуткам
    Продолжительность промежутка : 42 мс. Прикольно все это наверно придумал Европарламент потратив достаточно времени. (1, 00 видеокадр)
    Время предзагрузки промежутка : 504 мс.


    Скриншоты для ознакомления




    Онлайн видео Аббатство Даунтон



    Аббатство Даунтон/Downton Abbey (2015) WEB-DLRip (сезон 6, серии 1-2 из 8) BaibaKo (обновляемая)
    загрузка...
    Рейтинг →
     (голосов: 1, оценка 3/5, голосовать можно 1 раз )

    Другие торренты по теме:



      Комментарии (0):

      Информация

      Информация

        Посетители, находящиеся в группе Гости, не могут оставлять комментарии в данной новости.

        ↓ Меню




        ↓ Опрос

        Вы добавили сайт в закладки?
        Да
        Нет


        Top 10 за месяц (Фильмы)