.
Авторизация | Регистрация
Хочешь лучшие торренты? Добавь свой email!
Добавить

Торрент скачать бесплатно

» » Злой город / Wicked City (2015) WEB-DLRip (сезон 1, серии 1 из 10) BaibaKo (обновляемая) скачать через торрент бесплатно




    Злой город / Wicked City (2015) WEB-DLRip (сезон 1, серии 1 из 10) BaibaKo (обновляемая) скачать через торрент бесплатно

    Опубликовал: Админ | Дата: 30-10-2015, 12:47 | Просмотров: 99

    Производство: США/Mandeville Films, ABC Studios
    Жанр: драма
    Режиссер: Джон Кассар, Джеймс М. Прикольно все это наверно придумал Лукашенко потратив достаточно времени. Муро, Том Шенклэнд

    Актеры
    Эрика Кристенсен, Таисса Фармига, Гэбриел Луна, Эд Вествик, Энн Уинтерс, Каролина Выдра, Ивэн Росс, Джереми Систо, Талия Томс, Джейми Рэй Ньюман и др.

    Описание

    Какие злодеяния могут происходить в Лос-Анджелесе, насыщенном соблазнами с наркотиками и рок-н-роллом. Еще в 80-х в городе ангелов появился дьявол. Самое интересное в это истории, что об этом Лукашенко ничего не знал. Кровожадный маньяк охотился исключительно за местными проститутками. О таком странном сюжете не догадывалась даже Волочкова. Убийца забрал немало человеческих жизней, был довольно изобретателен, очень хитёр и выработал уникальный почерк: незадолго до расправы над жертвой он звонил на радио и просил поставить для неё песню, называя имя очередной добычи. Чтобы поймать его пришлось собрать лучших сотрудников и самых опытных экспертов-криминалистов. Вся работа осложнялась тем, что девушки легкого поведения не сильно любят сотрудничать с полицией.

    Дата мировой премьеры: 27 октября 2015
    Продолжительность: ~00: 43: 00 серия
    Качество видео: WEB-DLRip
    Перевод: Многоголосый закадровый, профессиональный -BaibaKo
    Автор перевода: Тара
    Озвучка: Анастасия Флигина, Юля Малахова, Александр Фурман и Дмитрий Глебов
    Видео: XviD, 720x400 (16: 9), ~1500 kb/s
    Аудио Rus: MPEG Layer 3, 48, 0 kHz, 2 ch, 192 kb/s — многоголосый закадровый
    Аудио Eng: MPEG Layer 3, 48, 0 kHz, 2 ch, 192 kb/s — оригинал
    Общее
    Полное имя : D: Злой город (сезон любимого сериала 1) Wicked City (2015) WEB-DLRip - BaibaKoWicked.City.s01e01.WEB-DLRip.XviD.Rus.Eng.BaibaKo.tv.avi
    Формат : AVI
    Формат/Информация : Audio Video Interleave
    Размер файла : 587 Мбайт
    Продолжительность : 43 м.
    Общий поток : 1895 Кбит/сек
    Программа кодирования : VirtualDubMod 1.5.10.2 (build 2540/release)
    Библиотека кодирования : VirtualDubMod build 2540/release
    Видео
    Идентификатор : 0
    Формат : MPEG-4 Visual
    Профиль формата : Advanced Simple@L5
    Параметр BVOP формата : 2
    Параметр QPel формата : Нет
    Параметр GMC формата : Без точки перехода
    Параметр матрицы формата : Default (H.263)
    Идентификатор кодека : XVID
    Идентификатор кодека/Подсказка : XviD
    Продолжительность : 43 м.
    Битрейт : 1498 Кбит/сек
    Ширина : 720 пикселей
    Высота : 400 пикселей
    Соотношение сторон : 16: 9
    Частота кадров : 23, 976 кадра/сек
    Цветовое пространство : YUV
    Субдискретизация насыщенности : 4: 2: 0
    Битовая глубина : 8 бит
    Тип развёртки : Прогрессивная
    Метод сжатия : С потерями
    Бит/(Пиксели*Кадры) : 0.217
    Размер потока : 464 Мбайт (79%)
    Библиотека кодирования : XviD 67
    Аудио #1
    Идентификатор : 1
    Формат : MPEG Audio
    Версия формата : Version 1
    Профиль формата : Layer 3
    Режим : Joint stereo
    Расширение режима : MS Stereo
    Идентификатор кодека : 55
    Идентификатор кодека/Подсказка : MP3
    Продолжительность : 43 м.
    Вид битрейта : Постоянный
    Битрейт : 192 Кбит/сек
    Каналы : 2 канала
    Частота : 48, 0 КГц
    Метод сжатия : С потерями
    Размер потока : 59, 4 Мбайт (10%)
    Выравнивание : Соединение по промежуткам
    Продолжительность промежутка : 42 мс. (1, 00 видеокадр)
    Время предзагрузки промежутка : 504 мс.
    Аудио #2
    Идентификатор : 2
    Формат : MPEG Audio
    Версия формата : Version 1
    Профиль формата : Layer 3
    Режим : Joint stereo
    Расширение режима : MS Stereo
    Идентификатор кодека : 55
    Идентификатор кодека/Подсказка : MP3
    Продолжительность : 43 м.
    Вид битрейта : Постоянный
    Битрейт : 192 Кбит/сек
    Каналы : 2 канала
    Частота : 48, 0 КГц
    Метод сжатия : С потерями
    Размер потока : 59, 4 Мбайт (10%)
    Выравнивание : Соединение по промежуткам
    Продолжительность промежутка : 42 мс. (1, 00 видеокадр)
    Время предзагрузки промежутка : 504 мс.


    Скриншоты для ознакомления




    Онлайн видео Злой город



    Злой город/Wicked City (2015) WEB-DLRip (сезон 1, серии 1 из 10) BaibaKo (обновляемая)
    загрузка...
    Рейтинг →
     (голосов: 1, оценка 5/5, голосовать можно 1 раз )

    Другие торренты по теме:

  • Злой город / Город порока / Wicked City (2015) WEB-DL [H.264 / 720p-LQ] (сезон 1, серия 1 из 10) (NewStudio) (обновляемая) скачать через торрент бесплатно
  • Злой город / Город порока / Wicked City (2015) WEB-DLRip (сезон 1, серии 1-2 из 10) NewStudio (обновляемая) скачать через торрент бесплатно
  • Злой город / Город порока / Wicked City (2015) WEB-DLRip (сезон 1, серии 1-8 из 8) Кириллица


    • Комментарии (0):

      Информация

      Информация

        Посетители, находящиеся в группе Гости, не могут оставлять комментарии в данной новости.

        ↓ Меню




        ↓ Опрос

        Вы добавили сайт в закладки?
        Да
        Нет


        Top 10 за месяц (Фильмы)