.
Авторизация | Регистрация
Хочешь лучшие торренты? Добавь свой email!
Добавить

Торрент скачать бесплатно

» » Конвой PQ-17 (2004) DVDRip [H.264] (серии 1-8 из 8) скачать через торрент бесплатно




    Конвой PQ-17 (2004) DVDRip [H.264] (серии 1-8 из 8) скачать через торрент бесплатно

    Опубликовал: Админ | Дата: 29-10-2015, 04:00 | Просмотров: 74

    Производство : Россия
    Жанр : боевик, драма, приключения, военный, история
    Режиссер : Александр Котт
    Актеры : Андрей Мерзликин, Валерий Дьяченко, Борис Войцеховский, Алексей Девотченко, Валерий Величко, Сергей Цепов, Мария Беккер, Валерий Доронин, Владимир Маслаков, Алексей Дедов и др.
    Описание :
    27 июня 1942 года из Рейкьявика в Архангельск вышел караван судов, получивший кодовое название: PQ-17. Путь кораблей с грузами для России лежал через северную Атлантику, где их ждали леденящий ветер, штормящее море и смертельные атаки немецких субмарин и бомбардировщиков.Но главную угрозу представлял немецкий линкор Тирпитц, одно сообщение о появлении которого заставило английское Адмиралтейство отдать приказ об отводе кораблей прикрытия, а транспортным судам — рассредоточиться и прорываться поодиночке, рассчитывая только на свою удачу, отвагу и мужество моряков.

    Продолжительность : ~00: 52: 00 серия
    Качество видео : DVDRip
    Видео : H.264/AVC, 706x460 (1.667: 1), ~1321 Kbps
    Аудио : AC3, 48.0 KHz, 2 ch, 192 Kbps
    Код:
    General
    Complete name : 1.mkv
    Format : Matroska
    File size : 559 MiB
    Duration : 51mn 34s
    Overall bit rate : 1 515 Kbps
    Encoded date : UTC 2011-12-27 18:35:43
    Writing application : mkvmerge v4.0.0 (\'The Stars were mine\') сборка от Jun 6 2010 16:18:42
    Writing library : libebml v1.0.0 + libmatroska v1.0.0
    Video
    ID : 1
    Format : AVC
    Format/Info : Advanced Video Codec
    Format profile :High@L3.1
    Format settings, CABAC : Yes
    Format settings, ReFrames : 8 frames
    Format settings, GOP : N=1
    Muxing mode : Container profile=Unknown@3.1
    Codec ID : V_MPEG4/ISO/AVC
    Duration : 51mn 34s
    Bit rate : 1 321 Kbps
    Width : 706 pixels
    Height : 460 pixels
    Display aspect ratio : 1.667
    Frame rate : 25.000 fps
    Color space : YUV
    Chroma subsampling : 4:2:0
    Bit depth : 8 bits
    Scan type : Progressive
    Bits/(Pixel*Frame) : 0.163
    Stream size : 477 MiB (85%)
    Writing library : x264 core 116 r2074 2641b9e
    Encoding settings : cabac=1/ref=8/deblock=1:-1:-1/analyse=0x3:0x113/me=umh/subme=7/psy=1/psy_rd=1.00:0.00/mixed_ref=1/me_range=16/chroma_me=1/trellis=2/8x8dct=1/cqm=0/deadzone=21, 11/fast_pskip=1/chroma_qp_offset=-2/threads=3/sliced_threads=0/nr=0/decimate=1/interlaced=0/bluray_compat=0/constrained_intra=0/bframes=3/b_pyramid=0/b_adapt=2/b_bias=0/direct=3/weightb=1/open_gop=0/weightp=2/keyint=250/keyint_min=25/scenecut=40/intra_refresh=0/rc_lookahead=40/rc=2pass/mbtree=1/bitrate=1321/ratetol=1.0/qcomp=0.60/qpmin=10/qpmax=51/qpstep=4/cplxblur=20.0/qblur=0.5/vbv_maxrate=17500/vbv_bufsize=14000/nal_hrd=none/ip_ratio=1.40/aq=1:1.00
    Audio
    ID : 2
    Format : AC-3
    Format/Info : Audio Coding 3
    Mode extension : CM (complete main)
    Codec ID : A_AC3
    Duration : 51mn 34s
    Bit rate mode : Constant
    Bit rate : 192 Kbps
    Channel(s) : 2 channels
    Channel positions : Front: L R
    Sampling rate : 48.0 KHz
    Bit depth : 16 bits
    Stream size : 70.8 MiB (13%)


    Скриншоты для ознакомления




    Онлайн видео Конвой PQ



    Конвой PQ-17 (2004) DVDRip [H.264] (серии 1-8 из 8)
    загрузка...
    Рейтинг →
     (голосов: 1, оценка 3/5, голосовать можно 1 раз )

    Другие торренты по теме:

  • Конвой / Convoy (1978) BDRemux [H.264 / 1080p] скачать через торрент бесплатно
  • Конвой / Le convoi (2016) BDRip [AVO]
  • Конвой / Le convoi (2016) BDRip [H.264] [AVO]
  • Конвой / Le convoi (2016)
  • Юрий и Александр Тараревы | Звездный конвой (2016) [FB2]
  • Конвой (2017) WEB-DL [H.264 / 720p-LQ] (серии 1-4 из 4)
  • Конвой / Konwoj (2017) HDRip [AD]


    • Комментарии (0):

      Информация

      Информация

        Посетители, находящиеся в группе Гости, не могут оставлять комментарии в данной новости.

        ↓ Меню




        ↓ Опрос

        Вы добавили сайт в закладки?
        Да
        Нет


        Top 10 за месяц (Фильмы)