.
Авторизация | Регистрация
Хочешь лучшие торренты? Добавь свой email!
Добавить

Торрент скачать бесплатно

» » Демоны Да Винчи / Da Vincis Demons (2015) HDTVRip [H.264 / 720p-LQ] (сезон 3, серии 1 из 10) Fox (обновляемая) скачать через торрент бесплатно




    Демоны Да Винчи / Da Vincis Demons (2015) HDTVRip [H.264 / 720p-LQ] (сезон 3, серии 1 из 10) Fox (обновляемая) скачать через торрент бесплатно

    Опубликовал: Админ | Дата: 28-10-2015, 16:21 | Просмотров: 89

    Производство: США/BBC Worldwide Productions
    Жанр: приключения, драма, фэнтези
    Режиссер: Майкл Дж. Бассетт, Дэвид С. Гойер, Джэми Пэйн

    Актеры
    Том Райли, Лора Хэддок, Йен Пири, Эрос Влахос, Грегг Чиллин, Лара Пулвер, Том Бейтман, Гера Хилмарсдоттир, Эллиот Леви, Росс О’Хеннесси, Дилан Гвин и др.

    Описание

    В мире, где мысль и вера находятся под контролем, один человек борется за то, чтобы сделать знания доступными для всех.
    Перед лицом неопределённости будущего его поход за знаниями едва не становится для него погибелью, когда он переходит за грань своего здравомыслия. Да Винчи, словно в омут с головой, уходит в собственные гениальные идеи, воплотив которые, становится необоримой силой, вытаскивающей из темноты и поворачивающей к свету целую эпоху. Его история становится зеркалом для нашего мира, зовущее всех нас на бой за Свободное Будущее.

    Продолжительность: ~ 00: 55: 00 серия
    Качество видео: HDTVRip 720p
    Перевод: Многоголосый закадровый, профессиональный -Fox
    Видео: AVC/H.264, 1280x720, ~2500 kb/s
    Аудио 1 Rus: AC3, 2 ch, 192 kb/s, CBR - многоголосый закадровый
    Аудио 2 Eng: AC3, 6 ch, 384 kb/s, CBR - оригинал
    Код:

    Общее
    Уникальный идентификатор : 187209640947767150262193401485234329961 (0x8CD743ED2FBE6761AE23922BA384D969)
    Полное имя : D:DowloandsВидеоDa.Vincis.Demons (S03) HDTV.720p. FOXDa.Vincis.Demons.S03E01.HDTV.720p.mkv
    Формат : Matroska
    Версия формата : Version 4/Version 2
    Размер файла : 1, 11 Гбайт
    Продолжительность : 50 м.
    Общий поток : 3155 Кбит/сек
    Дата кодирования : UTC 2015-10-25 19:55:12
    Программа кодирования : mkvmerge v8.3.0 (\'Over the Horizon\') 64bit
    Библиотека кодирования : libebml v1.3.1 + libmatroska v1.4.2
    DURATION : 00:50:31.872000000
    NUMBER_OF_FRAMES : 94746
    NUMBER_OF_BYTES : 72764928
    _STATISTICS_WRITING_APP : mkvmerge v8.3.0 (\'Over the Horizon\') 64bit
    _STATISTICS_WRITING_DATE_UTC : 2015-10-25 19:55:12
    _STATISTICS_TAGS : BPS DURATION NUMBER_OF_FRAMES NUMBER_OF_BYTES
    Видео
    Идентификатор : 1
    Формат : AVC
    Формат/Информация : Advanced Video Codec
    Профиль формата :High@L4.1
    Параметр CABAC формата : Да
    Параметр ReFrames формата : 5 кадров
    Идентификатор кодека : V_MPEG4/ISO/AVC
    Продолжительность : 50 м.
    Битрейт : 2516 Кбит/сек
    Ширина : 1280 пикселей
    Высота : 720 пикселей
    Соотношение сторон : 16:9
    Режим частоты кадров : Постоянный
    Частота кадров : 23, 976 кадра/сек
    Цветовое пространство : YUV
    Субдискретизация насыщенности : 4:2:0
    Битовая глубина : 8 бит
    Тип развёртки : Прогрессивная
    Бит/(Пиксели*Кадры) : 0.114
    Размер потока : 909 Мбайт (80%)
    Библиотека кодирования : x264 core 148 r2638 7599210
    Настройки программы : cabac=1/ref=5/deblock=1:0:0/analyse=0x3:0x113/me=umh/subme=8/psy=1/psy_rd=1.00:0.00/mixed_ref=1/me_range=16/chroma_me=1/trellis=1/8x8dct=1/cqm=0/deadzone=21, 11/fast_pskip=1/chroma_qp_offset=-2/threads=22/lookahead_threads=3/sliced_threads=0/nr=0/decimate=1/interlaced=0/bluray_compat=0/constrained_intra=0/bframes=3/b_pyramid=2/b_adapt=2/b_bias=0/direct=3/weightb=1/open_gop=0/weightp=2/keyint=250/keyint_min=23/scenecut=40/intra_refresh=0/rc_lookahead=50/rc=crf/mbtree=1/crf=18.0/qcomp=0.60/qpmin=0/qpmax=69/qpstep=4/ip_ratio=1.40/aq=1:1.00
    Язык : English
    Default : Да
    Forced : Нет
    Цветовой диапазон : Limited
    Коэффициенты матрицы : BT.709
    DURATION : 00:50:31.862000000
    NUMBER_OF_FRAMES : 72692
    NUMBER_OF_BYTES : 976457351
    _STATISTICS_WRITING_APP : mkvmerge v8.3.0 (\'Over the Horizon\') 64bit
    _STATISTICS_WRITING_DATE_UTC : 2015-10-25 19:55:12
    _STATISTICS_TAGS : BPS DURATION NUMBER_OF_FRAMES NUMBER_OF_BYTES
    Аудио #1
    Идентификатор : 2
    Формат : AC-3
    Формат/Информация : Audio Coding 3
    Расширение режима : CM (complete main)
    Параметр Endianness формата : Big
    Идентификатор кодека : A_AC3
    Продолжительность : 50 м.
    Вид битрейта : Постоянный
    Битрейт : 192 Кбит/сек
    Каналы : 2 канала
    Расположение каналов : Front: L R
    Частота : 48, 0 КГц
    Метод сжатия : С потерями
    Размер потока : 69, 4 Мбайт (6%)
    Язык : Russian
    Default : Да
    Forced : Нет
    Аудио #2
    Идентификатор : 3
    Формат : AC-3
    Формат/Информация : Audio Coding 3
    Расширение режима : CM (complete main)
    Параметр Endianness формата : Big
    Идентификатор кодека : A_AC3
    Продолжительность : 50 м.
    Вид битрейта : Постоянный
    Битрейт : 384 Кбит/сек
    Каналы : 6 каналов
    Расположение каналов : Front: L C R, Side: L R, LFE
    Частота : 48, 0 КГц
    Метод сжатия : С потерями
    Размер потока : 139 Мбайт (12%)
    Язык : English
    Default : Нет
    Forced : Нет
    01. Навсегда безбожник/Semper Infidelis
    02. Вилами по воде писано, сказал кто то из толпы, к чему не понятно. Аваддон/Abbadon
    03. Рабочий режим/Modus Operandi
    04. Лабрис/The Labrys
    05. Вилами по воде писано, сказал кто то из толпы, к чему не понятно. Охотник за душами/Anima Venator
    06. Свобода выбора/Liberum Arbitrium
    07. Взмах крыла мухи/Alis Volat Proplis
    08. Исповедь изобретения/La Confessione Della Macchina
    09. Неистовый ангел/Angelus Iratissimus
    10. Гнев богов/Ira Deorum


    Скриншоты для ознакомления




    Онлайн видео Демоны Да Винчи



    Демоны Да Винчи/Da Vincis Demons (2015) HDTVRip [H.264/720p-LQ] (сезон 3, серии 1 из 10) Fox (обновляемая)
    загрузка...
    Рейтинг →
     (голосов: 1, оценка 5/5, голосовать можно 1 раз )

    Другие торренты по теме:

  • Демоны да Винчи / Da Vincis Demons (2015) HDTVRip (сезон 3, серии 1 из 10) LostFilm (обновляемая) скачать через торрент бесплатно
  • Демоны Да Винчи / Da Vincis Demons (2015) HDTVRip [H.264 / 720p-LQ] (сезон 3, серии 1-3 из 10) ColdFilm (обновляемая) скачать через торрент бесплатно
  • Демоны да Винчи / Da Vincis Demons (2015) HDTVRip [H.264] (Сезон 3, серии 1 из 10) LostFilm [MP4|720x400] скачать через торрент бесплатно
  • Демоны да Винчи / Da Vincis Demons (2015) HDTVRip (сезон 3, серии 1-2 из 10) AlexFilm (обновляемая) скачать через торрент бесплатно
  • Демоны да Винчи / Da Vincis Demons (2015) WEBRip [H.264 / 720p-LQ] (сезон 3, серии 1 из 10) LostFilm (обновляемая) скачать через торрент бесплатно
  • Демоны да Винчи / Da Vincis Demons (2015) HDTVRip [H.264] (Сезон 3, серии 1-5 из 10) AlexFilm [MP4|720x400] скачать через торрент бесплатно
  • Демоны да Винчи / Da Vincis Demons (2013-2015) HDRip (сезон 1-3, серии 1-28 из 28) LostFilm


    • Комментарии (0):

      Информация

      Информация

        Посетители, находящиеся в группе Гости, не могут оставлять комментарии в данной новости.

        ↓ Меню




        ↓ Опрос

        Вы добавили сайт в закладки?
        Да
        Нет


        Top 10 за месяц (Фильмы)