.
Авторизация | Регистрация
Хочешь лучшие торренты? Добавь свой email!
Добавить

Торрент скачать бесплатно

» » Демоны да Винчи / Da Vincis Demons (2015) HDTVRip (сезон 3, серии 1 из 10) LostFilm (обновляемая) скачать через торрент бесплатно




    Демоны да Винчи / Da Vincis Demons (2015) HDTVRip (сезон 3, серии 1 из 10) LostFilm (обновляемая) скачать через торрент бесплатно

    Опубликовал: Админ | Дата: 28-10-2015, 16:21 | Просмотров: 118

    Производство: США/BBC Worldwide Productions
    Жанр: приключения, драма, фэнтези
    Режиссер: Питер Хор, Марк Эверест, Алекс Пиллаи

    Актеры
    Том Райли, Лора Хэддок, Эллиот Кауэн, Грегг Чиллин, Эрос Влахос, Блейк Ритсон, Дэвид Скофилд, Лара Пулвер, Гера Хилмарсдоттир, Джеймс Фолкнер и др.

    Описание

    Заключительный сезон любимого сериала драматической истории на тему ранних лет жизни Леонардо да Винчи. Великий гений, далеко опередивший свою эпоху, бросает вызов традиционному обществу. Чтобы освободить знание, Леонардо должен взять на себя борьбу с врагами, которые используют историю, чтобы скрыть истину. Художник, изобретатель, мыслитель, фехтовальщик, идеалист и пылкий любовник, Леонардо раздвигает границы привычной реальности.

    Продолжительность: ~00: 50: 00 серия
    Качество видео: HDTVRip
    Перевод: Многоголосый закадровый, профессиональный -LostFilm
    Видео: XviD, 720x400 (16: 9), ~1364 kb/s
    Аудио Rus: MPEG Layer 3, 48, 0 kHz, 2 ch, 192 kb/s — многоголосый закадровый
    Общее
    Полное имя : D: Демоны да Винчи (сезон любимого сериала 3) Da Vinci\'s Demons (2015) HDTVRip - LostFilmDa.Vincis.Demons.S03E01.rus.LostFilm.TV.avi
    Формат : AVI
    Формат/Информация : Audio Video Interleave
    Размер файла : 567 Мбайт
    Продолжительность : 50 м.
    Режим общего битрейта : Переменный
    Общий поток : 1564 Кбит/сек
    Программа кодирования : Nandub v1.0rc2
    Библиотека кодирования : Nandub build 1853/release
    Видео
    Идентификатор : 0
    Формат : MPEG-4 Visual
    Профиль формата : Advanced Simple@L5
    Параметр BVOP формата : Нет
    Параметр QPel формата : Нет
    Параметр GMC формата : Без точки перехода
    Параметр матрицы формата : Default (H.263)
    Идентификатор кодека : XVID
    Идентификатор кодека/Подсказка : XviD
    Продолжительность : 50 м.
    Битрейт : 1364 Кбит/сек
    Ширина : 720 пикселей
    Высота : 400 пикселей
    Соотношение сторон : 16: 9
    Частота кадров : 23, 976 кадра/сек
    Цветовое пространство : YUV
    Субдискретизация насыщенности : 4: 2: 0
    Битовая глубина : 8 бит
    Тип развёртки : Прогрессивная
    Метод сжатия : С потерями
    Бит/(Пиксели*Кадры) : 0.198
    Размер потока : 494 Мбайт (87%)
    Библиотека кодирования : XviD 1.2.1 (UTC 2008-12-04)
    Аудио
    Идентификатор : 1
    Формат : MPEG Audio
    Версия формата : Version 1
    Профиль формата : Layer 3
    Режим : Joint stereo
    Расширение режима : MS Stereo
    Идентификатор кодека : 55
    Идентификатор кодека/Подсказка : MP3
    Продолжительность : 50 м.
    Вид битрейта : Переменный
    Битрейт : 192 Кбит/сек
    Каналы : 2 канала
    Частота : 48, 0 КГц
    Метод сжатия : С потерями
    Размер потока : 68, 1 Мбайт (12%)
    Выравнивание : Соединение по промежуткам
    Продолжительность промежутка : 24 мс. (0, 58 видеокадр)
    Время предзагрузки промежутка : 482 мс.
    Библиотека кодирования : LAME3.97b
    Настройки программы : -m j -V 4 -q 3 -lowpass 18.6 --abr 192


    Скриншоты для ознакомления




    Онлайн видео Демоны да Винчи



    Демоны да Винчи/Da Vincis Demons (2015) HDTVRip (сезон 3, серии 1 из 10) LostFilm (обновляемая)
    загрузка...
    Рейтинг →
     (голосов: 1, оценка 3/5, голосовать можно 1 раз )

    Другие торренты по теме:

  • Демоны Да Винчи / Da Vincis Demons (2015) HDTVRip [H.264 / 720p-LQ] (сезон 3, серии 1-3 из 10) ColdFilm (обновляемая) скачать через торрент бесплатно
  • Демоны Да Винчи / Da Vincis Demons (2015) HDTVRip [H.264 / 720p-LQ] (сезон 3, серии 1 из 10) Fox (обновляемая) скачать через торрент бесплатно
  • Демоны да Винчи / Da Vincis Demons (2015) HDTVRip [H.264] (Сезон 3, серии 1 из 10) LostFilm [MP4|720x400] скачать через торрент бесплатно
  • Демоны да Винчи / Da Vincis Demons (2015) HDTVRip (сезон 3, серии 1-2 из 10) AlexFilm (обновляемая) скачать через торрент бесплатно
  • Демоны да Винчи / Da Vincis Demons (2015) WEBRip [H.264 / 720p-LQ] (сезон 3, серии 1 из 10) LostFilm (обновляемая) скачать через торрент бесплатно
  • Демоны да Винчи / Da Vincis Demons (2015) HDTVRip [H.264] (Сезон 3, серии 1-5 из 10) AlexFilm [MP4|720x400] скачать через торрент бесплатно
  • Демоны да Винчи / Da Vincis Demons (2013-2015) HDRip (сезон 1-3, серии 1-28 из 28) LostFilm


    • Комментарии (0):

      Информация

      Информация

        Посетители, находящиеся в группе Гости, не могут оставлять комментарии в данной новости.

        ↓ Меню




        ↓ Опрос

        Вы добавили сайт в закладки?
        Да
        Нет


        Top 10 за месяц (Фильмы)