.
Авторизация | Регистрация
Хочешь лучшие торренты? Добавь свой email!
Добавить

Торрент скачать бесплатно

» » Королева красоты (2015) SATRip (серии 1-5 из 12) (обновляемая) скачать через торрент бесплатно




    Королева красоты (2015) SATRip (серии 1-5 из 12) (обновляемая) скачать через торрент бесплатно

    Опубликовал: Админ | Дата: 28-10-2015, 16:21 | Просмотров: 77

    Производство: Россия/Кинокомпания Киноград 21
    Жанр: мелодрама
    Режиссер: Карен Оганесян

    Актеры
    Карина Андоленко, Павел Прилучный, Анастасия Задорожная, Владимир Жеребцов, Александр Тютин, Галина Петрова, Ольга Сухарева, Елена Старостина (II), Сергей Шнырёв, Луиза Мосендз, Ксения Буравская, Валерия Кожевникова, Павел Южаков-Харланчук, Алеся Пуховая, Валерия Арланова, Ксения Дементьева и др.

    Описание

    Красота простой деревенской девушки Катерины Пановой (Карина Андоленко) покорила мир. Она стала лицом советской моды 60-х годов и первой манекенщицей, признанной на Западе. Самое интересное в это истории, что об этом Гарри Поттер ничего не знал. Русской красавице рукоплескали Париж и Прага, пресса называла ее национальным достоянием СССР, а дома ее ждала советская действительность, зависть, интриги, ревность и трагическая любовь… 1961 г. В небольшой подмосковной деревне живет семья Пановых. Отец Михаил ревнует жену к давнему прошлому. Поводом является его дочь-красавица Катя, которая совершенного не похожа на него, в отличие от своей сестры Любы. Белая ворона, сказал кто то из толпы, к чему не понятно. Катя отвергает всех местных кавалеров. Она верит, что ей уготована иная судьба. Ее заветная мечта — стать манекенщицей и отправиться в Париж.

    Дата премьеры в России: 26 октября 2015
    Продолжительность: ~ 00: 44: 00 серия
    Качество видео: SATRip
    Видео: Xvid, 720x400, ~1800 Кбит/с
    Аудио: MP3, 2 ch, 128 Кбит/с, CBR
    Код:

    Общее
    Полное имя : D:МОЯtorrentKoroleva.krasoty.(Model).2015.SATRip1.serija.avi
    Формат : AVI
    Формат/Информация : Audio Video Interleave
    Размер файла : 611 Мбайт
    Продолжительность : 44 м.
    Общий поток : 1938 Кбит/сек
    Программа кодирования : VirtualDubMod 1.5.10.3 |www.virtualdub-fr.org|| (build 2550/release)
    Библиотека кодирования : VirtualDubMod build 2550/release
    Видео
    Идентификатор : 0
    Формат : MPEG-4 Visual
    Профиль формата : Advanced Simple@L5
    Параметр BVOP формата : 2
    Параметр QPel формата : Нет
    Параметр GMC формата : Без точки перехода
    Параметр матрицы формата : Default (MPEG)
    Идентификатор кодека : XVID
    Идентификатор кодека/Подсказка : XviD
    Продолжительность : 44 м.
    Битрейт : 1800 Кбит/сек
    Ширина : 720 пикселей
    Высота : 400 пикселей
    Соотношение сторон : 16:9
    Частота кадров : 25, 000 кадров/сек
    Цветовое пространство : YUV
    Субдискретизация насыщенности : 4:2:0
    Битовая глубина : 8 бит
    Тип развёртки : Прогрессивная
    Метод сжатия : С потерями
    Бит/(Пиксели*Кадры) : 0.250
    Размер потока : 568 Мбайт (93%)
    Библиотека кодирования : XviD 1.2.1 (UTC 2008-12-04)
    Аудио
    Идентификатор : 1
    Формат : MPEG Audio
    Версия формата : Version 1
    Профиль формата : Layer 3
    Режим : Joint stereo
    Расширение режима : MS Stereo
    Идентификатор кодека : 55
    Идентификатор кодека/Подсказка : MP3
    Продолжительность : 44 м.
    Вид битрейта : Постоянный
    Битрейт : 128 Кбит/сек
    Каналы : 2 канала
    Частота : 48, 0 КГц
    Метод сжатия : С потерями
    Размер потока : 40, 4 Мбайт (7%)
    Выравнивание : Соединение по промежуткам
    Продолжительность промежутка : 40 мс. (1, 00 видеокадр)
    Время предзагрузки промежутка : 504 мс.
    Библиотека кодирования : LAME3.99r
    Настройки программы : -m j -V 4 -q 9 -lowpass 17 -b 128


    Скриншоты для ознакомления




    Онлайн видео Королева красоты (2015) SATRip (серии 1



    Королева красоты (2015) SATRip (серии 1-5 из 12) (обновляемая)
    загрузка...
    Рейтинг →
     (голосов: 1, оценка 3/5, голосовать можно 1 раз )

    Другие торренты по теме:

  • Королева красоты (2015) HDTV [H.264 / 1080i-LQ] (серии 1-3 из 12) (обновляемая) скачать через торрент бесплатно
  • Королева красоты (2015) HDTVRip (серия 1-3 из 12) (обновляемая) скачать через торрент бесплатно


    • Комментарии (0):

      Информация

      Информация

        Посетители, находящиеся в группе Гости, не могут оставлять комментарии в данной новости.

        ↓ Меню




        ↓ Опрос

        Вы добавили сайт в закладки?
        Да
        Нет


        Top 10 за месяц (Фильмы)