.
Авторизация | Регистрация
Хочешь лучшие торренты? Добавь свой email!
Добавить

Торрент скачать бесплатно

» » Оккупированные / Occupied (2015) WEB-DLRip (сезон 1, серии 1-2 из 10) Kandeli (обновляемая) скачать через торрент бесплатно




    Оккупированные / Occupied (2015) WEB-DLRip (сезон 1, серии 1-2 из 10) Kandeli (обновляемая) скачать через торрент бесплатно

    Опубликовал: Админ | Дата: 28-10-2015, 16:21 | Просмотров: 49

    Производство: Франция, Швеция, Норвегия
    Жанр: триллер
    Режиссер: Эрик Рихтер Страндт, Йон Андреас Андерсен, Эрик Шёлдбьерг

    Актеры
    Ленн Кудрявицки, Ингеборга Дапкунайте, Сэломи Эмнету, Ипполит Жирардо, Рангхиль Гудбрансен, Янне Хелтберг, Лиза Ловен Конгсли, Хенрик Местад, Эйстейн Рёгер, Эльдар Скар и др.

    Описание

    Сериал рассказывает о недалеком будущем, в котором с молчаливого согласия ЕС Россия оккупирует Норвегию из-за того, что вновь избранное норвежское правительство, заботясь об окружающей среде, решает свернуть добычу нефти и газа в Северном море.

    Дата мировой премьеры: 27 сентября 2015
    Продолжительность: ~ 00: 45: 00 серия
    Качество видео: WEB-DLRip
    Перевод: Одноголосый закадровый, любительский - Kandeli
    Вид субтитров: вшитые неотключаемые
    Язык субтитров: норвежский
    Видео: Xvid, 720x352, ~1540 Кбит/с
    Аудио: MP3, 2 канала, 320 Кбит/с, CBR
    Код:

    Общее
    Полное имя : D:FILMЬlPOctbrOccupied (Season 01) WEB-DLRipOccupied.S01E01.L1.WEB-DLRip.avi
    Формат : AVI
    Формат/Информация : Audio Video Interleave
    Профиль формата : OpenDML
    Настройки формата : rec
    Размер файла : 599 Мбайт
    Продолжительность : 44 м.
    Общий поток : 1864 Кбит/сек
    Программа кодирования : AVI-Mux GUI 1.17.8.3, Feb 16 201019:42:50
    Видео
    Идентификатор : 0
    Формат : MPEG-4 Visual
    Профиль формата : Advanced Simple@L5
    Параметр BVOP формата : 2
    Параметр QPel формата : Нет
    Параметр GMC формата : Без точки перехода
    Параметр матрицы формата : Default (MPEG)
    Идентификатор кодека : XVID
    Идентификатор кодека/Подсказка : XviD
    Продолжительность : 44 м.
    Битрейт : 1540 Кбит/сек
    Ширина : 720 пикселей
    Высота : 352 пикселя
    Соотношение сторон : 2, 045
    Частота кадров : 25, 000 кадров/сек
    Цветовое пространство : YUV
    Субдискретизация насыщенности : 4:2:0
    Битовая глубина : 8 бит
    Тип развёртки : Прогрессивная
    Метод сжатия : С потерями
    Бит/(Пиксели*Кадры) : 0.243
    Размер потока : 495 Мбайт (83%)
    Библиотека кодирования : XviD 1.2.1 (UTC 2008-12-04)
    Аудио
    Идентификатор : 1
    Формат : MPEG Audio
    Версия формата : Version 1
    Профиль формата : Layer 3
    Режим : Joint stereo
    Расширение режима : MS Stereo
    Идентификатор кодека : 55
    Идентификатор кодека/Подсказка : MP3
    Продолжительность : 44 м.
    Вид битрейта : Постоянный
    Битрейт : 320 Кбит/сек
    Каналы : 2 канала
    Частота : 44, 1 КГц
    Метод сжатия : С потерями
    Размер потока : 103 Мбайт (17%)
    Выравнивание : Соединение по промежуткам
    Продолжительность промежутка : 477 мс. (11, 92 видеокадров)
    Время предзагрузки промежутка : 209 мс.
    Заголовок : T3_Audio - Russian


    Скриншоты для ознакомления




    Онлайн видео Оккупированные



    Оккупированные/Occupied (2015) WEB-DLRip (сезон 1, серии 1-2 из 10) Kandeli (обновляемая)
    загрузка...
    Рейтинг →
     (голосов: 1, оценка 5/5, голосовать можно 1 раз )

    Другие торренты по теме:

  • Оккупированные / Occupied (2015) WEBRip [H.264 / 720p-LQ] (сезон 1, серии 1-10 из 10) Kandeli


    • Комментарии (0):

      Информация

      Информация

        Посетители, находящиеся в группе Гости, не могут оставлять комментарии в данной новости.

        ↓ Меню




        ↓ Опрос

        Вы добавили сайт в закладки?
        Да
        Нет


        Top 10 за месяц (Фильмы)