.
Авторизация | Регистрация
Хочешь лучшие торренты? Добавь свой email!
Добавить

Торрент скачать бесплатно

» » Квест (2015) SATRip [H.264] (серии 1-2 из 16) (обновляемая) скачать через торрент бесплатно




    Квест (2015) SATRip [H.264] (серии 1-2 из 16) (обновляемая) скачать через торрент бесплатно

    Опубликовал: Админ | Дата: 28-10-2015, 16:21 | Просмотров: 67

    Производство: Россия/Продюсерский центр Иван
    Жанр: приключения, триллер
    Режиссер: Андрей Загидуллин, Александр Данилов

    Актеры
    Павел Прилучный, Марина Петренко, Агата Муцениеце, Михаил Евланов, Илья Иосифов, Пётр Рыков, Иван Шибанов, Яна Крайнова, Юрис Стренга, Анете Саулите, Эдгарс Озолиньш, Эгилс Мелбардис, Эмилс Акулис, Илзе Блауберга, Роман Волобуев и др.

    Описание

    Они не знали друг друга до того дня, пока в одном московском клубе их не отравили неизвестным ядом. И теперь тем из них, кто не умер на месте, а получил отложенную на 72 часа смерть, предстоит выполнить несколько заданий загадочного кукловода, который единственный в мире имеет антидот. Если задания будут выполнены, то наградой для выживших станет противоядие.В роли карты острова сокровищ — мистическое, полное сюрпризов наследие Якова Брюса — сподвижника Петра I, слывшего в народе колдуном и чернокнижником. Однако чтобы завладеть этим наследием, героям предстоит пройти вполне реальные испытания, которые некоторым из них будут стоить жизни.Опасный квест с первых же минут оправдывает себя — герои погружаются в мир тайн прошлого, о котором мало кто знает из современников. Божий одуванчик, сказал кто то из толпы, к чему не понятно. Одна загадка переплетается с другой, современная жизнь перемешивается с прошлым.

    Дата премьеры в России: 26 октября 2015 (СТС)
    Продолжительность: ~ 00: 42: 00 серия
    Качество видео: SATRip
    Видео: AVC/H.264, 720x400, ~1433 Кбит/сек
    Аудио: AC3, 2 канала, Кбит/сек, CBR
    Код:

    Общее
    Уникальный идентификатор : 178213835084231855069401050009927720751 (0x8612BC74477F2907A293C90BC03C9F2F)
    Полное имя : G:КВЕСТ1 серия.mkv
    Формат : Matroska
    Версия формата : Version 2
    Размер файла : 499 Мбайт
    Продолжительность : 42 м.
    Общий поток : 1626 Кбит/сек
    Дата кодирования : UTC 2015-10-27 11:41:33
    Программа кодирования : mkvmerge v7.8.0 (\'River Man\') 32bit built on Apr 3 2015 12:11:22
    Библиотека кодирования : libebml v1.3.1 + libmatroska v1.4.2
    Видео
    Идентификатор : 1
    Формат : AVC
    Формат/Информация : Advanced Video Codec
    Профиль формата :High@L4.1
    Параметр CABAC формата : Да
    Параметр ReFrames формата : 9 кадров
    Идентификатор кодека : V_MPEG4/ISO/AVC
    Продолжительность : 42 м.
    Битрейт : 1433 Кбит/сек
    Ширина : 720 пикселей
    Высота : 400 пикселей
    Соотношение сторон : 16:9
    Режим частоты кадров : Постоянный
    Частота кадров : 25, 000 кадров/сек
    Цветовое пространство : YUV
    Субдискретизация насыщенности : 4:2:0
    Битовая глубина : 8 бит
    Тип развёртки : Прогрессивная
    Бит/(Пиксели*Кадры) : 0.199
    Размер потока : 430 Мбайт (86%)
    Библиотека кодирования : x264 core 146 r2538 121396c
    Настройки программы : cabac=1/ref=9/deblock=1:-1:-1/analyse=0x3:0x133/me=umh/subme=9/psy=1/psy_rd=1.00:0.00/mixed_ref=0/me_range=32/chroma_me=1/trellis=2/8x8dct=1/cqm=0/deadzone=21, 11/fast_pskip=1/chroma_qp_offset=-2/threads=2/lookahead_threads=4/sliced_threads=0/nr=0/decimate=1/interlaced=0/bluray_compat=0/constrained_intra=0/bframes=9/b_pyramid=2/b_adapt=1/b_bias=0/direct=3/weightb=1/open_gop=0/weightp=2/keyint=250/keyint_min=25/scenecut=40/intra_refresh=0/rc_lookahead=40/rc=2pass/mbtree=1/bitrate=1433/ratetol=1.0/qcomp=0.60/qpmin=0/qpmax=69/qpstep=4/cplxblur=20.0/qblur=0.5/ip_ratio=1.40/aq=1:1.00
    Default : Да
    Forced : Нет
    Цветовой диапазон : Limited
    Основные цвета : BT.601 PAL
    Характеристики трансфера : BT.470 System B, BT.470 System G
    Коэффициенты матрицы : BT.601
    Аудио
    Идентификатор : 2
    Формат : AC-3
    Формат/Информация : Audio Coding 3
    Расширение режима : CM (complete main)
    Параметр Endianness формата : Big
    Идентификатор кодека : A_AC3
    Продолжительность : 42 м.
    Вид битрейта : Постоянный
    Битрейт : 192 Кбит/сек
    Каналы : 2 канала
    Расположение каналов : Front: L R
    Частота : 48, 0 КГц
    Метод сжатия : С потерями
    Размер потока : 58, 9 Мбайт (12%)
    Default : Да
    Forced : Нет


    Скриншоты для ознакомления




    Онлайн видео Квест (2015) SATRip [H.264] (серии 1



    Квест (2015) SATRip [H.264] (серии 1-2 из 16) (обновляемая)
    загрузка...
    Рейтинг →
     (голосов: 1, оценка 5/5, голосовать можно 1 раз )

    Другие торренты по теме:

  • Борис Акунин | Квест (2014) [MP3] скачать через торрент бесплатно
  • Том и Джерри: Шпион Квест / Tom and Jerry: Spy Quest (2015) WEB-DLRip скачать через торрент бесплатно
  • Том и Джерри: Шпион Квест / Tom and Jerry: Spy Quest (2015) WEB-DLRip [H.264] скачать через торрент бесплатно
  • Том и Джерри: Шпион Квест / Tom and Jerry: Spy Quest (2015) WEB-DLRip скачать через торрент бесплатно
  • Том и Джерри: Шпион Квест / Tom and Jerry: Spy Quest (2015) WEB-DL [H.264 / 720p] скачать через торрент бесплатно
  • Квест (2015) WEB-DL [H.264 / 720p-LQ] (серии 01-02 из 16) (обновляемая) скачать через торрент бесплатно
  • Квест (2015) WEB-DLRip (сезон 1, серии 1-2 из 16) (обновляемая) скачать через торрент бесплатно
  • Джонни Квест. Документальный фильм / Jonny Quest Documentary (2012) WEB-DL


    • Комментарии (0):

      Информация

      Информация

        Посетители, находящиеся в группе Гости, не могут оставлять комментарии в данной новости.

        ↓ Меню




        ↓ Опрос

        Вы добавили сайт в закладки?
        Да
        Нет


        Top 10 за месяц (Фильмы)