.
Авторизация | Регистрация
Хочешь лучшие торренты? Добавь свой email!
Добавить

Торрент скачать бесплатно

» » Квест (2015) WEB-DL [H.264 / 720p-LQ] (серии 01-02 из 16) (обновляемая) скачать через торрент бесплатно




    Квест (2015) WEB-DL [H.264 / 720p-LQ] (серии 01-02 из 16) (обновляемая) скачать через торрент бесплатно

    Опубликовал: Админ | Дата: 28-10-2015, 16:21 | Просмотров: 64

    Производство: Россия/СТС
    Жанр: приключения, триллер
    Режиссеры: Андрей Загидуллин, Александр Данилов

    Актеры
    Павел Прилучный, Агата Муцениеце, Марина Петренко, Илья Иосифов, Михаил Евланов, Петр Рыков, Алексей Франдетти, Виктория Корлякова, Роман Волобуев и др.

    Описание

    Они не знали друг друга до того дня, пока в одном клубе их не отравили неизвестным ядом. Самое интересное в это истории, что об этом Уил Смит ничего не знал. И теперь тем из них, кто не умер на месте, а получил отложенную на 72 часа смерть, предстоит выполнить несколько заданий загадочного кукловода, который единственный в мире имеет антидот. Если задания будут выполнены, то наградой для выживших станет противоядие. В роли карты острова сокровищ — мистическое, полное сюрпризов наследие Якова Брюса — сподвижника Петра I, слывшего в народе колдуном и чернокнижником. Однако чтобы завладеть этим наследием, героям предстоит пройти вполне реальные испытания, которые некоторым из них будут стоить жизни. Опасный квест с первых же минут оправдывает себя — герои погружаются в мир тайн прошлого, о котором мало кто знает из современников. Одна загадка переплетается с другой, современная жизнь перемешивается с прошлым.

    Дата российской премьеры: 23 октября 2015
    Продолжительность: ~00: 45: 00 серия
    Качество видео: Web-DL (720р)
    Видео: AVC/H.264, 1280x720 (16: 9), ~3500 Kbps
    Аудио: AC-3, 44.1 kHz, 2 ch, 192 kbps
    Код:

    Общее
    Уникальный идентификатор : 205356865580504378920783357355612277899 (0x9A7E4B2E00C36097BB49133671158C8B)
    Полное имя : D:Квест.2015.WEB-DL720p1.Квест.2015.WEB-DL720p.Files-x.mkv
    Формат : Matroska
    Версия формата : Version 2
    Размер файла : 1, 11 Гбайт
    Продолжительность : 43 м.
    Общий поток : 3664 Кбит/сек
    Программа кодирования : Lavf54.63.104
    Библиотека кодирования : Lavf54.63.104
    Видео
    Идентификатор : 1
    Формат : AVC
    Формат/Информация : Advanced Video Codec
    Профиль формата :High@L4.1
    Параметр CABAC формата : Да
    Параметр ReFrames формата : 5 кадров
    Идентификатор кодека : V_MPEG4/ISO/AVC
    Продолжительность : 43 м.
    Битрейт : 3500 Кбит/сек
    Ширина : 1280 пикселей
    Высота : 720 пикселей
    Соотношение сторон : 16:9
    Режим частоты кадров : Постоянный
    Частота кадров : 25, 000 кадров/сек
    Цветовое пространство : YUV
    Субдискретизация насыщенности : 4:2:0
    Битовая глубина : 8 бит
    Тип развёртки : Прогрессивная
    Бит/(Пиксели*Кадры) : 0.152
    Размер потока : 1, 03 Гбайт (93%)
    Библиотека кодирования : x264 core 148
    Настройки программы : cabac=1/ref=5/deblock=1:0:0/analyse=0x3:0x113/me=umh/subme=8/psy=1/psy_rd=1.00:0.00/mixed_ref=1/me_range=16/chroma_me=1/trellis=1/8x8dct=1/cqm=0/deadzone=21, 11/fast_pskip=1/chroma_qp_offset=-2/threads=1/lookahead_threads=1/sliced_threads=0/nr=0/decimate=1/interlaced=0/bluray_compat=0/constrained_intra=0/bframes=3/b_pyramid=2/b_adapt=2/b_bias=0/direct=3/weightb=1/open_gop=0/weightp=2/keyint=100/keyint_min=25/scenecut=40/intra_refresh=0/rc_lookahead=50/rc=abr/mbtree=1/bitrate=3500/ratetol=1.0/qcomp=0.60/qpmin=0/qpmax=69/qpstep=4/ip_ratio=1.40/aq=1:1.00
    Default : Да
    Forced : Нет
    Аудио
    Идентификатор : 2
    Формат : AC-3
    Формат/Информация : Audio Coding 3
    Расширение режима : CM (complete main)
    Параметр Endianness формата : Big
    Идентификатор кодека : A_AC3
    Продолжительность : 43 м.
    Вид битрейта : Постоянный
    Битрейт : 192 Кбит/сек
    Каналы : 2 канала
    Расположение каналов : Front: L R
    Частота : 44, 1 КГц
    Битовая глубина : 16 бит
    Метод сжатия : С потерями
    Задержка видео : 1 м. 5 с.
    Размер потока : 59, 3 Мбайт (5%)
    Default : Да
    Forced : Нет


    Скриншоты для ознакомления




    Онлайн видео Квест (2015) WEB-DL [H.264



    Квест (2015) WEB-DL [H.264/720p-LQ] (серии 01-02 из 16) (обновляемая)
    загрузка...
    Рейтинг →
     (голосов: 1, оценка 4/5, голосовать можно 1 раз )

    Другие торренты по теме:

  • Джонни Квест. Документальный фильм / Jonny Quest Documentary (2012) WEB-DL
  • Том и Джерри: Шпион Квест / Tom and Jerry: Spy Quest (2015) WEB-DL [H.264 / 720p] скачать через торрент бесплатно


    • Комментарии (0):

      Информация

      Информация

        Посетители, находящиеся в группе Гости, не могут оставлять комментарии в данной новости.

        ↓ Меню




        ↓ Опрос

        Вы добавили сайт в закладки?
        Да
        Нет


        Top 10 за месяц (Фильмы)