.
Авторизация | Регистрация
Хочешь лучшие торренты? Добавь свой email!
Добавить

Торрент скачать бесплатно

» » Чума / Девяностые (2015) HDTV [H.264 / 1080i-LQ] (серии 1-4 из 24) (обновляемая) скачать через торрент бесплатно




    Чума / Девяностые (2015) HDTV [H.264 / 1080i-LQ] (серии 1-4 из 24) (обновляемая) скачать через торрент бесплатно

    Опубликовал: Админ | Дата: 28-10-2015, 16:21 | Просмотров: 84

    Телекомпания: Россия/Студия КонтАкт продакшн по заказу АОТелекомпания НТВ
    Жанр: драма
    Режиссер: Алексей Козлов, Александр Устюгов

    Актеры
    Сергей Жарков, Александр Устюгов, Юрий Беляев, Борис Щербаков, Екатерина Климова, Сергей Селин, Андрей Горбачёв, Светлана Смирнова-Марцинкевич, Наталья Ткаченко, Никита Рогов и др.

    Описание

    Чума – фильм о нас и о девяностых. Рушится эпоха, на смену ей приходит другая. Мужчины – любят деньги, женщины – любят тех, у кого они есть! Героям фильма нужно вписаться в обстоятельства новой жизни, но далеко не у всех это получается. Жизнь людей происходит на разных полюсах криминальной эпохи: взлет олигархов и обнищание народа. Эта жизнь раздаёт дивиденды не по заслугам и справедливости, а по законам волчьей стаи, где выживает сильнейший.

    Дата премьеры в РФ: 26 октября 2015
    Продолжительность: ~00: : 45: 00 серия
    Качество видео: HDTV (1080i)
    Видео: AVC/H.264, 1920х1080 (16: 9), ~7688 kbps
    Аудио: MP2, 48.0 KHz, 2 ch, 192 Kbps, CBR
    Код:

    Общее
    Идентификатор : 1 (0x1)
    Полное имя : D:Чума.HDTV.(1080i)Chuma.devyanostye.(01.seriya.iz.24).2015.HDTV.(1080i).ts
    Формат : MPEG-TS
    Размер файла : 2, 61 Гбайт
    Продолжительность : 45 м.
    Режим общего битрейта : Переменный
    Общий поток : 8292 Кбит/сек
    Видео
    Идентификатор : 201 (0xC9)
    Идентификатор меню : 2201 (0x899)
    Формат : AVC
    Формат/Информация : Advanced Video Codec
    Профиль формата :Main@L4.0
    Параметр CABAC формата : Да
    Параметр ReFrames формата : 4 кадра
    Идентификатор кодека : 27
    Продолжительность : 45 м.
    Битрейт : 7688 Кбит/сек
    Ширина : 1920 пикселей
    Высота : 1080 пикселей
    Соотношение сторон : 16:9
    Частота кадров : 25, 000 кадров/сек
    Стандарт вещания : Component
    Цветовое пространство : YUV
    Субдискретизация насыщенности : 4:2:0
    Битовая глубина : 8 бит
    Тип развёртки : Чересстрочная
    Порядок развёртки : Верхнее поле первое
    Бит/(Пиксели*Кадры) : 0.148
    Размер потока : 2, 42 Гбайт (93%)
    Основные цвета : BT.709
    Характеристики трансфера : BT.709
    Коэффициенты матрицы : BT.709
    Аудио
    Идентификатор : 301 (0x12D)
    Идентификатор меню : 2201 (0x899)
    Формат : MPEG Audio
    Версия формата : Version 1
    Профиль формата : Layer 2
    Идентификатор кодека : 3
    Продолжительность : 45 м.
    Вид битрейта : Постоянный
    Битрейт : 192 Кбит/сек
    Каналы : 2 канала
    Частота : 48, 0 КГц
    Метод сжатия : С потерями
    Задержка видео : -40 мс.
    Размер потока : 61, 9 Мбайт (2%)
    Язык : English


    Скриншоты для ознакомления




    Онлайн видео Чума



    Чума/Девяностые (2015) HDTV [H.264/1080i-LQ] (серии 1-4 из 24) (обновляемая)
    загрузка...
    Рейтинг →
     (голосов: 1, оценка 5/5, голосовать можно 1 раз )

    Другие торренты по теме:

  • Чума / Девяностые (2015) SATRip [H.264] (серии 1-4 из 24) (обновляемая) скачать через торрент бесплатно
  • Чума / Девяностые (2015) HDTVRip (серии 1-2 из 24) (обновляемая) скачать через торрент бесплатно
  • Чума / Девяностые (2015) SATRip (серии 1-22 из 24) (обновляемая) скачать через торрент бесплатно
  • Чума (Девяностые) (2015) HDTVRip [H.264 / 720p-LQ] (серии 1-24 из 24) скачать через торрент бесплатно
  • Чума (Девяностые) (2015) HDTVRip [H.264] (серии 1-24 из 24) скачать через торрент бесплатно
  • Девяностые / Чума (2015) WEBRip (серия 1-3 из 24) (обновляемая) скачать через торрент бесплатно


    • Комментарии (0):

      Информация

      Информация

        Посетители, находящиеся в группе Гости, не могут оставлять комментарии в данной новости.

        ↓ Меню




        ↓ Опрос

        Вы добавили сайт в закладки?
        Да
        Нет


        Top 10 за месяц (Фильмы)