.
Авторизация | Регистрация
Хочешь лучшие торренты? Добавь свой email!
Добавить

Торрент скачать бесплатно

» » Паранормальное явление 5: Призраки в 3D / Paranormal Activity: The Ghost Dimension (2015) CamRip скачать через торрент бесплатно




    Паранормальное явление 5: Призраки в 3D / Paranormal Activity: The Ghost Dimension (2015) CamRip скачать через торрент бесплатно

    Опубликовал: Админ | Дата: 28-10-2015, 16:21 | Просмотров: 73

    Производство: США/Blumhouse Productions, Paramount Pictures
    Жанр: Ужасы, Триллер
    Режиссер: Грегори Плоткин

    Актеры
    Крис Дж. Мюррэй, Бриттани Шоу, Айви Джордж, Дэн Гилл, Оливия Тейлор Дадли, Хлоя Ксенджери, Джесика Браун, Дон МакМанус, Майкл Кравич, Халли Фут

    Описание

    Молодые супруги Райан и Эмили, и как принято их 6-летняя дочь Лейла переезжают в довольно симпатичный и тихий дом. В гараже они находят видеокамеру и коробку кассет. Но они даже не подозревали, что они увидят, когда заглянут в объектив камеры…

    Дата мировой премьеры: 20 октября 2015
    Дата премьеры в России: 22 октября 2015, Централ Партнершип 3D
    Продолжительность: 01: 22: 53
    Качество видео: CamRip
    Перевод: Дублированный
    Вид субтитров: Отсутствуют
    Видео: MPEG4, XviD, 672x400 (1.680), 29.880 fps, 2 088 Kbps (0.260 bit/pixel)
    Аудио #1: AC-3, 44.1 KHz, 2 ch, 128 Kbps, CBR - Русский
    Аудио #2: AC-3, 48.0 KHz, 2 ch, 128 Kbps, CBR - Испанский
    Семпл: Скачать
    Код:

    General
    Complete name : D:VIDEOParanormal.Activity.5.2015.D.CAMRip.1400Mb.avi
    Format : AVI
    Format/Info : Audio Video Interleave
    File size : 1.37 GiB
    Duration : 1h 22mn
    Overall bit rate : 2 361 Kbps
    Writing application : VirtualDubMod 1.5.10.2 (build 2540/release)
    Writing library : VirtualDubMod build 2540/release
    Video
    ID : 0
    Format : MPEG-4 Visual
    Format profile : Advanced Simple@L5
    Format settings, BVOP : 2
    Format settings, QPel : No
    Format settings, GMC : No warppoints
    Format settings, Matrix : Default (MPEG)
    Codec ID : XVID
    Codec ID/Hint : XviD
    Duration : 1h 22mn
    Bit rate : 2 001 Kbps
    Width : 672 pixels
    Height : 400 pixels
    Display aspect ratio : 5:3
    Frame rate : 29.880 fps
    Color space : YUV
    Chroma subsampling : 4:2:0
    Bit depth : 8 bits
    Scan type : Progressive
    Compression mode : Lossy
    Bits/(Pixel*Frame) : 0.249
    Stream size : 1.16 GiB (85%)
    Writing library : XviD 1.2.1 (UTC 2008-12-04)
    Audio #1
    ID : 1
    Format : AC-3
    Format/Info : Audio Coding 3
    Mode extension : CM (complete main)
    Format settings, Endianness : Big
    Codec ID : 2000
    Duration : 1h 22mn
    Bit rate mode : Constant
    Bit rate : 128 Kbps
    Channel(s) : 2 channels
    Channel positions : Front: L R
    Sampling rate : 44.1 KHz
    Compression mode : Lossy
    Stream size : 75.9 MiB (5%)
    Alignment : Split accross interleaves
    Audio #2
    ID : 2
    Format : AC-3
    Format/Info : Audio Coding 3
    Mode extension : CM (complete main)
    Format settings, Endianness : Big
    Codec ID : 2000
    Duration : 1h 22mn
    Bit rate mode : Constant
    Bit rate : 128 Kbps
    Channel(s) : 2 channels
    Channel positions : Front: L R
    Sampling rate : 48.0 KHz
    Compression mode : Lossy
    Stream size : 75.9 MiB (5%)
    Alignment : Split accross interleaves


    Скриншоты для ознакомления




    Онлайн видео Паранормальное явление 5: Призраки в 3D



    Паранормальное явление 5: Призраки в 3D/Paranormal Activity: The Ghost Dimension (2015) CamRip
    загрузка...
    Рейтинг →
     (голосов: 1, оценка 4/5, голосовать можно 1 раз )

    Другие торренты по теме:

  • Паранормальное явление 5: Призраки в 3D / Paranormal Activity: The Ghost Dimension (2015) WEB-DL [H.264 / 720p-LQ] скачать через торрент бесплатно
  • Паранормальное явление 5: Призраки в 3D / Paranormal Activity: The Ghost Dimension (2015) BDRemux [H.264 / 1080p] [EN / EN, Fr, Sp, Po Sub] скачать через торрент бесплатно
  • Паранормальное явление 5: Призраки в 3D / Paranormal Activity: The Ghost Dimension (2015) HDRip [Line] [Unrated Cut] скачать через торрент бесплатно
  • Паранормальное явление 5: Призраки / Paranormal Activity: The Ghost Dimension (2015) BDRemux [H.264 / 1080p] [Line] скачать через торрент бесплатно
  • Паранормальное явление 5: Призраки / Paranormal Activity: The Ghost Dimension (2015) BDRip [H.264 / 720p] [Line] [Unrated Cut] скачать через торрент бесплатно
  • Паранормальное явление 5: Призраки / Paranormal Activity: The Ghost Dimension (2015) AC3 5.1 [hand made] скачать через торрент бесплатно
  • Паранормальное явление 5: Призраки / Paranormal Activity: The Ghost Dimension (2015) HDRip [Theatrical Cut]
  • Паранормальное явление 5: Призраки / Paranormal Activity: The Ghost Dimension (2015) HDRip [H.264] [Theatrical Cut]


    • Комментарии (0):

      Информация

      Информация

        Посетители, находящиеся в группе Гости, не могут оставлять комментарии в данной новости.

        ↓ Меню




        ↓ Опрос

        Вы добавили сайт в закладки?
        Да
        Нет


        Top 10 за месяц (Фильмы)