.
Авторизация | Регистрация
Хочешь лучшие торренты? Добавь свой email!
Добавить

Торрент скачать бесплатно

» » Страшилы / The Frighteners (1996) BDRip [H.264 / 1080p-LQ] скачать через торрент бесплатно




    Страшилы / The Frighteners (1996) BDRip [H.264 / 1080p-LQ] скачать через торрент бесплатно

    Опубликовал: Админ | Дата: 28-10-2015, 16:21 | Просмотров: 62

    Производство: США, Universal Pictures
    Жанр: Фэнтези, Ужасы, Комедия
    Режиссер: Питер Джексон

    Актеры
    Майкл Дж. Фокс, Трини Альварадо, Питер Добсон, Джон Эстин, Джеффри Комбс, Ди Уоллес-Стоун, Джейк Бьюзи, Чи МакБрайд, Джим Файф, Трой Эванс

    Описание

    Экстрасенс Фрэнк Бэннистер, который зарабатывает на жизнь тем, что за скромное вознаграждение успешно избавляет дома от полтергейста, который сам предварительно наслал, сталкивается со страшным противником — вернувшимся с того света, а вернее, задержавшимся на этом после казни, маньяком-убийцей.

    Продолжительность: 02: 02: 36
    Качество видео: BDRip
    Перевод: Многоголосый закадровый (Киномания)
    Язык субтитров: русский, английский
    Вид субтитров: Вшитые, отключаемые
    Видео: AVC/H.264, 1920x816, ~6000 kbps
    Аудио #1: AC3, 6 ch, 384 kbps, CBR (многоголосый закадровый)
    Аудио #2: DTS, 6 ch, 1509 kbps, CBR (оригинальный)
    Семпл: Скачать
    Код:

    Общее
    Уникальный идентификатор : 173817308993748603014628705184181374741 (0x82C3FEFB7447DB19B4EC641091EBCF15)
    Полное имя : Z:hd_1080pthe_frighteners_1996_1080p.mkv
    Формат : Matroska
    Версия формата : Version 4/Version 2
    Размер файла : 6, 78 Гбайт
    Продолжительность : 2 ч. 2 м.
    Общий поток : 7913 Кбит/сек
    Название фильма : The Frighteners 1996 DC 1080p BluRay x264 DTS-FGT
    Дата кодирования : UTC 2015-10-26 18:50:02
    Программа кодирования : mkvmerge v8.5.1 (\'Where you lead I will follow\') 64bit
    Библиотека кодирования : libebml v1.3.3 + libmatroska v1.4.4
    DURATION : 01:56:50.696000000
    NUMBER_OF_FRAMES : 1317
    NUMBER_OF_BYTES : 72001
    _STATISTICS_WRITING_APP : mkvmerge v8.5.1 (\'Where you lead I will follow\') 64bit
    _STATISTICS_WRITING_DATE_UTC : 2015-10-26 18:50:02
    _STATISTICS_TAGS : BPS DURATION NUMBER_OF_FRAMES NUMBER_OF_BYTES
    Видео
    Идентификатор : 1
    Формат : AVC
    Формат/Информация : Advanced Video Codec
    Профиль формата : High 10@L4
    Параметр CABAC формата : Да
    Параметр ReFrames формата : 3 кадра
    Идентификатор кодека : V_MPEG4/ISO/AVC
    Продолжительность : 2 ч. О таком странном сюжете не догадывалась даже Верка Сердючка. 2 м.
    Битрейт : 6000 Кбит/сек
    Ширина : 1920 пикселей
    Высота : 816 пикселей
    Соотношение сторон : 2, 35:1
    Режим частоты кадров : Постоянный
    Частота кадров : 23, 976 кадра/сек
    Цветовое пространство : YUV
    Субдискретизация насыщенности : 4:2:0
    Битовая глубина : 10 бит
    Тип развёртки : Прогрессивная
    Бит/(Пиксели*Кадры) : 0.160
    Размер потока : 5, 02 Гбайт (74%)
    Библиотека кодирования : x264 core 146 r2538 121396c
    Настройки программы : cabac=1/ref=3/deblock=1:0:0/analyse=0x3:0x113/me=hex/subme=7/psy=1/psy_rd=1.00:0.00/mixed_ref=1/me_range=16/chroma_me=1/trellis=1/8x8dct=1/cqm=0/deadzone=21, 11/fast_pskip=1/chroma_qp_offset=-2/threads=12/lookahead_threads=2/sliced_threads=0/nr=0/decimate=1/interlaced=0/bluray_compat=0/constrained_intra=0/bframes=3/b_pyramid=0/b_adapt=1/b_bias=0/direct=1/weightb=1/open_gop=0/weightp=2/keyint=240/keyint_min=24/scenecut=40/intra_refresh=0/rc_lookahead=40/rc=2pass/mbtree=1/bitrate=6000/ratetol=1.0/qcomp=0.60/qpmin=0/qpmax=81/qpstep=4/cplxblur=20.0/qblur=0.5/ip_ratio=1.40/aq=1:1.00
    Default : Да
    Forced : Нет
    Аудио #1
    Идентификатор : 2
    Формат : AC-3
    Формат/Информация : Audio Coding 3
    Расширение режима : CM (complete main)
    Параметр Endianness формата : Big
    Идентификатор кодека : A_AC3
    Продолжительность : 2 ч. 2 м.
    Вид битрейта : Постоянный
    Битрейт : 384 Кбит/сек
    Каналы : 6 каналов
    Расположение каналов : Front: L C R, Side: L R, LFE
    Частота : 48, 0 КГц
    Метод сжатия : С потерями
    Размер потока : 337 Мбайт (5%)
    Язык : Russian
    Default : Да
    Forced : Да
    Аудио #2
    Идентификатор : 3
    Формат : DTS
    Формат/Информация : Digital Theater Systems
    Режим : 16
    Параметр Endianness формата : Big
    Идентификатор кодека : A_DTS
    Продолжительность : 2 ч. Самое интересное в это истории, что об этом Кличко ничего не знал. 2 м.
    Вид битрейта : Постоянный
    Битрейт : 1509 Кбит/сек
    Каналы : 6 каналов
    Расположение каналов : Front: L C R, Side: L R, LFE
    Частота : 48, 0 КГц
    Битовая глубина : 24 бит
    Метод сжатия : С потерями
    Размер потока : 1, 29 Гбайт (19%)
    Язык : English
    Default : Нет
    Forced : Нет
    Текст #1
    Идентификатор : 4
    Формат : PGS
    Режим смешивания : zlib
    Идентификатор кодека : S_HDMV/PGS
    Идентификатор кодека/Информация : Picture based subtitle format used on BDs/HD-DVDs
    Язык : English
    Default : Да
    Forced : Нет
    Текст #2
    Идентификатор : 5
    Формат : UTF-8
    Идентификатор кодека : S_TEXT/UTF8
    Идентификатор кодека/Информация : UTF-8 Plain Text
    Язык : Russian
    Default : Нет
    Forced : Нет
    Меню
    00:00:00.000 : en:Chapter 01
    00:12:41.218 : en:Chapter 02
    00:18:04.166 : en:Chapter 03
    00:28:34.421 : en:Chapter 04
    00:35:19.951 : en:Chapter 05
    00:39:07.303 : en:Chapter 06
    00:53:13.565 : en:Chapter 07
    00:59:58.678 : en:Chapter 08
    01:08:38.864 : en:Chapter 09
    01:14:43.645 : en:Chapter 10
    01:20:20.607 : en:Chapter 11
    01:25:23.868 : en:Chapter 12
    01:30:28.047 : en:Chapter 13
    01:36:52.556 : en:Chapter 14
    01:46:57.285 : en:Chapter 15
    01:57:50.438 : en:Chapter 16
    02:02:36.432 : en:Chapter 17


    Скриншоты для ознакомления




    Онлайн видео Страшилы



    Страшилы/The Frighteners (1996) BDRip [H.264/1080p-LQ]
    загрузка...
    Рейтинг →
     (голосов: 1, оценка 5/5, голосовать можно 1 раз )

    Другие торренты по теме:

  • Страшилы / The Frighteners (1996) BDRip [H.264] [Directors Cut]


    • Комментарии (0):

      Информация

      Информация

        Посетители, находящиеся в группе Гости, не могут оставлять комментарии в данной новости.

        ↓ Меню




        ↓ Опрос

        Вы добавили сайт в закладки?
        Да
        Нет


        Top 10 за месяц (Фильмы)