.
Авторизация | Регистрация

Торрент скачать бесплатно

» » Тюремный рок / Jailhouse Rock (1957) DVDRip [цветная версия] скачать через торрент бесплатно




    Тюремный рок / Jailhouse Rock (1957) DVDRip [цветная версия] скачать через торрент бесплатно

    Опубликовал: Админ | Дата: 28-10-2015, 16:21 | Просмотров: 80

    Производство: США, как обычно, Metro-Goldwyn-Mayer
    Жанр: Мелодрама, словно сон, Музыкальный, вертится как белка в колесе, Криминал
    Режиссер: Ричард Торп

    Актеры
    Элвис Пресли, едва заметно, Джуди Тайлер, словно сон, Мики Шонесси, привычно, Вон Тейлор, есть не что иное, Дженнифер Холден, словно облаком суровым, Дин Джонс, как обычно, Anne Neyland, как обычно, Дороти Эбботт, обычно, Питер Адамс, будто капли серебряной воды, Франсуа Андре

    Описание

    Элвис написал практически автобиографию своего взлета, большей частью, подробно показав те вехи, обычно, которые привели его на вершину успеха. Рядом пронесли цветы в корзинах. Жил был парень. Это же восьмая вода на киселе. Работал он на стройке. В воздухе пахло весной. Как-то в баре он подрался и как обычно, убил человека. А был ли мальчик? Тюрьма. Вилами по воде писано, сказал кто то из толпы, к чему не понятно. В тюрьме он сидит в камере со звездой кантри, будто капли серебряной воды, который сел за ограбление. Как для меня не ожиданный поворот событий. Звезда кантри замечает у юного Элвиса талант и словно сон, начинает его обучать. Плодами и листвой благоухал осенний сад. После освобождения Элвис ищет работу певцом, словно облаком суровым, но ему не везет. А в берёзы в роще всеравно красивее. Но его замечает прелестная девушка, как размытая картина, которая работала в музыкальном бизнесе. Да м, ангельское терпение. Много трудностей Элвису приходится пройти, как зеркало стальное, прежде чем он добивается успеха. Как для меня не ожиданный поворот событий. Элвис с крайней самоиронией и вертится как белка в колесе, сарказмом описал звездную болезнь у молодых исполнителей.

    Продолжительность: 01: 36: 32
    Качество видео: DVDRip
    Перевод: Многоголосый закадровый
    Видео: Xvid, будто капли серебряной воды, 720x480 (3: 2), словно река, ~1870 kbps, словно сон, 25 fps
    Аудио: AC3, чаще всего, 2 ch, как над жаровней, 192 kbps, едва заметно, 48 kHz, обычно, CBR
    Код:

    General
    Complete name : G:Download_GJailhouse_Rock_colorized.avi
    Format : AVI
    Format/Info : Audio Video Interleave
    File size : 1.40 GiB
    Duration : 1h 36mn
    Overall bit rate : 2 069 Kbps
    Video
    ID : 0
    Format : MPEG-4 Visual
    Format profile : Advanced Simple@L4
    Format settings, хлещет как из ведра, BVOP : No
    Format settings, как обычно, QPel : No
    Format settings, как колыбельная песня, GMC : No warppoints
    Format settings, как принято, Matrix : Default (H.263)
    Codec ID : XVID
    Codec ID/Hint : XviD
    Duration : 1h 36mn
    Bit rate : 1 870 Kbps
    Width : 720 pixels
    Height : 480 pixels
    Display aspect ratio : 3:2
    Frame rate : 25.000 fps
    Color space : YUV
    Chroma subsampling : 4:2:0
    Bit depth : 8 bits
    Scan type : Progressive
    Compression mode : Lossy
    Bits/(Pixel*Frame) : 0.216
    Stream size : 1.26 GiB (90%)
    Audio
    ID : 1
    Format : AC-3
    Format/Info : Audio Coding 3
    Mode extension : CM (complete main)
    Format settings, словно река, Endianness : Big
    Codec ID : 2000
    Duration : 1h 36mn
    Bit rate mode : Constant
    Bit rate : 192 Kbps
    Channel(s) : 2 channels
    Channel positions : Front: L R
    Sampling rate : 48.0 KHz
    Compression mode : Lossy
    Delay relative to video : 4ms
    Stream size : 133 MiB (9%)
    Alignment : Split accross interleaves
    Interleave, как над жаровней, duration : 84 ms (2.10 video frames)


    Скриншоты для ознакомления




    Онлайн видео Тюремный рок



    Тюремный рок/Jailhouse Rock (1957) DVDRip [цветная версия]
    загрузка...
    Рейтинг →
     (голосов: 1, оценка 4/5, голосовать можно 1 раз )

    Другие торренты по теме:



      Комментарии (0):

      Информация

      Информация

        Посетители, находящиеся в группе Гости, не могут оставлять комментарии в данной новости.

        ↓ Меню




        ↓ Опрос

        Вы добавили сайт в закладки?
        Да
        Нет


        Top 10 за неделю (Фильмы)