.
Авторизация | Регистрация
Хочешь лучшие торренты? Добавь свой email!
Добавить

Торрент скачать бесплатно

» » Клан Сопрано / The Sopranos (2007) BDRip [H.264 / 1080p] (сезон 6, серии 1-21 из 21) (Novamedia, Чадов, Пучков) скачать через торрент бесплатно




    Клан Сопрано / The Sopranos (2007) BDRip [H.264 / 1080p] (сезон 6, серии 1-21 из 21) (Novamedia, Чадов, Пучков) скачать через торрент бесплатно

    Опубликовал: Админ | Дата: 26-10-2015, 04:00 | Просмотров: 355

    Производство: США
    Жанр : фантастика, триллер, драма
    Режиссер : Тимоти Ван Паттен, Джон Паттерсон, Аллен Култер
    Актеры : Джеймс Гандольфини, Эди Фалько, Джэми-Линн Сиглер, Майкл Империоли, Лоррейн Бракко, Тони Сирико, Роберт Айлер, Стив Ван Зандт, Доминик Кьянезе, Аида Туртурро и др.
    Описание :
    Повседневная жизнь современного Крестного отца: его мысли — стремительны, действия — решительны, а юмор — черен. Мафиозный босс Северного Джерси Тони Сопрано успешно справляется с проблемами Семьи.

    Продолжительность : ~ 00: 55: 00 серия
    Качество видео: BDRip
    Перевод: многоголосый закадровый профессиональный -Novamedia ; одноголосый закадровый -Чадов, Пучков
    Видео: AVC/H.264, 1920x1080, ~ 11900 Кбит/с
    Аудио #1 Rus: АС3, 2 ch, 192 Кбит/с (многоголосый закадровый - Novamedia)
    Аудио #2 Rus: DTS, 6 ch, 1510 Кбит/с (одноголосый закадровый - Чадов)
    Аудио #3 Rus: DTS, 6 ch, 1509 Кбит/с (одноголосый закадровый - Пучков *1 серия)
    Аудио #4 Eng: АС3, 6 ch, 640 Кбит/с (оригинал)
    Код:
    Полное имя : E:DownloadsThe.Sopranos.S06.Bdrip.1080p.by.AKTEPThe.Sopranos.S06E01.Bdrip.1080p.by.AKTEP.mkv
    Формат : Matroska
    Версия формата : Version 4/Version 2
    Размер файла : 5, 88 Гбайт
    Продолжительность : 52 м.
    Общий поток : 16, 1 Мбит/сек
    Дата кодирования : UTC 2015-10-21 17:47:37
    Программа кодирования : mkvmerge v6.2.0 (\'Promised Land\') built on Apr 28 2013 12:22:01
    Библиотека кодирования : libebml v1.3.0 + libmatroska v1.4.0
    Видео
    Идентификатор : 1
    Формат : AVC
    Формат/Информация : Advanced Video Codec
    Профиль формата :High@L4.1
    Параметр CABAC формата : Да
    Параметр ReFrames формата : 4 кадра
    Идентификатор кодека : V_MPEG4/ISO/AVC
    Продолжительность : 52 м.
    Битрейт : 11, 9 Мбит/сек
    Ширина : 1920 пикселей
    Высота : 1080 пикселей
    Соотношение сторон : 16:9
    Режим частоты кадров : Постоянный
    Частота кадров : 23, 976 кадра/сек
    Цветовое пространство : YUV
    Субдискретизация насыщенности : 4:2:0
    Битовая глубина : 8 бит
    Тип развёртки : Прогрессивная
    Бит/(Пиксели*Кадры) : 0.240
    Размер потока : 4, 35 Гбайт (74%)
    Библиотека кодирования : x264 core 140 r2377+40 929f149 tMod [8-bit@4:2:0 X86]
    Настройки программы : cabac=1/ref=4/deblock=1:-3:-3/analyse=0x3:0x113/me=umh/subme=10/psy=1/fade_compensate=0.00/psy_rd=1.05:0.00/mixed_ref=1/me_range=32/chroma_me=1/trellis=2/8x8dct=1/cqm=0/deadzone=21, 11/fast_pskip=0/chroma_qp_offset=-2/threads=12/lookahead_threads=3/sliced_threads=0/nr=0/decimate=0/interlaced=0/bluray_compat=0/constrained_intra=0/fgo=0/bframes=12/b_pyramid=2/b_adapt=2/b_bias=0/direct=3/weightb=1/open_gop=0/weightp=2/keyint=250/keyint_min=23/scenecut=40/intra_refresh=0/rc=crf/mbtree=0/crf=21.0000/qcomp=0.75/qpmin=0:0:0/qpmax=69:69:69/qpstep=4/ip_ratio=1.40/pb_ratio=1.00/aq=4:0.75/aq-sensitivity=10.00/aq-factor=1.00:1.00:1.00/aq2=0/aq3=0
    Язык : English
    Default : Да
    Forced : Нет
    Аудио #1
    Идентификатор : 2
    Формат : AC-3
    Формат/Информация : Audio Coding 3
    Расширение режима : CM (complete main)
    Параметр Endianness формата : Big
    Идентификатор кодека : A_AC3
    Продолжительность : 52 м.
    Вид битрейта : Постоянный
    Битрейт : 192 Кбит/сек
    Каналы : 2 канала
    Расположение каналов : Front: L R
    Частота : 48, 0 КГц
    Битовая глубина : 16 бит
    Метод сжатия : С потерями
    Размер потока : 71, 9 Мбайт (1%)
    Язык : Russian
    Default : Да
    Forced : Нет
    Аудио #2
    Идентификатор : 3
    Формат : DTS
    Формат/Информация : Digital Theater Systems
    Режим : 16
    Параметр Endianness формата : Big
    Идентификатор кодека : A_DTS
    Продолжительность : 52 м.
    Вид битрейта : Постоянный
    Битрейт : 1509 Кбит/сек
    Каналы : 6 каналов
    Расположение каналов : Front: L C R, Side: L R, LFE
    Частота : 48, 0 КГц
    Битовая глубина : 24 бит
    Метод сжатия : С потерями
    Размер потока : 565 Мбайт (9%)
    Заголовок : G
    Язык : Russian
    Default : Нет
    Forced : Нет
    Аудио #3
    Идентификатор : 4
    Формат : DTS
    Формат/Информация : Digital Theater Systems
    Режим : 16
    Параметр Endianness формата : Big
    Идентификатор кодека : A_DTS
    Продолжительность : 52 м.
    Вид битрейта : Постоянный
    Битрейт : 1510 Кбит/сек
    Каналы : 6 каналов
    Расположение каналов : Front: L C R, Side: L R, LFE
    Частота : 48, 0 КГц
    Битовая глубина : 24 бит
    Метод сжатия : С потерями
    Размер потока : 565 Мбайт (9%)
    Язык : Russian
    Default : Нет
    Forced : Нет
    Аудио #4
    Идентификатор : 5
    Формат : AC-3
    Формат/Информация : Audio Coding 3
    Расширение режима : CM (complete main)
    Параметр Endianness формата : Big
    Идентификатор кодека : A_AC3
    Продолжительность : 52 м.
    Вид битрейта : Постоянный
    Битрейт : 640 Кбит/сек
    Каналы : 6 каналов
    Расположение каналов : Front: L C R, Side: L R, LFE
    Частота : 48, 0 КГц
    Битовая глубина : 16 бит
    Метод сжатия : С потерями
    Размер потока : 240 Мбайт (4%)
    Язык : English
    Default : Нет
    Forced : Нет
    Текст #1
    Идентификатор : 6
    Формат : UTF-8
    Идентификатор кодека : S_TEXT/UTF8
    Идентификатор кодека/Информация : UTF-8 Plain Text
    Язык : Russian
    Default : Нет
    Forced : Нет
    Текст #2
    Идентификатор : 7
    Формат : UTF-8
    Идентификатор кодека : S_TEXT/UTF8
    Идентификатор кодека/Информация : UTF-8 Plain Text
    Язык : English
    Default : Нет
    Forced : Нет
    Меню
    00:00:00.000 : :The Sopranos S06E01 - Members Only
    00:01:43.103 : :Seven Souls
    00:10:26.042 : :Year of the Rat
    00:21:57.233 : :Circle of Life
    00:30:12.436 : :The Big Banana
    00:43:17.220 : :His Master\'s Voice
    00:47:02.278 : :Where\'s the Emergency?
    00:50:39.662 : :End Credits


    Скриншоты для ознакомления




    Онлайн видео Клан Сопрано



    Клан Сопрано/The Sopranos (2007) BDRip [H.264/1080p] (сезон 6, серии 1-21 из 21) (Novamedia, Чадов, Пучков)
    загрузка...
    Рейтинг →
     (голосов: 1, оценка 3/5, голосовать можно 1 раз )

    Другие торренты по теме:

  • Клан Сопрано / The Sopranos (1999-2007) BDRip [H.264 / 1080p-LQ] (сезон 1-6, серии 1-86 из 86) Гоблин, Amedia, Fox crime, НТВ [Hi444PP]


    • Комментарии (0):

      Информация

      Информация

        Посетители, находящиеся в группе Гости, не могут оставлять комментарии в данной новости.

        ↓ Меню




        ↓ Опрос

        Вы добавили сайт в закладки?
        Да
        Нет


        Top 10 за месяц (Фильмы)