.
Авторизация | Регистрация
Хочешь лучшие торренты? Добавь свой email!
Добавить

Торрент скачать бесплатно

» » Метод (2015) WEB-DLRip (серии 1-4 из 16) (обновляемая) скачать через торрент бесплатно




    Метод (2015) WEB-DLRip (серии 1-4 из 16) (обновляемая) скачать через торрент бесплатно

    Опубликовал: Админ | Дата: 26-10-2015, 04:00 | Просмотров: 162

    Производство: Россия/Первый канал
    Жанр: триллер, криминал, драма
    Режиссер: Юрий Быков

    Актеры
    Константин Хабенский, Паулина Андреева, Виталий Кищенко, Александр Цекало, Екатерина Дубакина, Александр Петров (II), Тимофей Трибунцев, Игорь Савочкин, Алексей Серебряков, Юрий Колокольников, Юрий Быков, Ян Цапник, Захар Кабанов и др.

    Описание

    Главная героиня Есеня хочет после окончания института работать с Родионом Меглиным — загадочным, скрытным, следователем-одиночкой с невероятной раскрываемостью дел разнообразных маньяков. Каков его метод, никто не знает. Есеня, попав к нему в стажеры, начинает понимать, что суть метода в том, что Меглин сам — маньяк. Он ИХ чувствует. Ему разрешено ликвидировать одних, другим сохранять жизнь и присматривать за ними. О таком странном сюжете не догадывалась даже Верка Сердючка. Любовь, которой не суждено случиться, на фоне ужасающих преступлений самых страшных маньяков последних десятилетий в нашей стране.

    Дата премьеры в РФ: 18 октября 2015
    Продолжительность: ~ 00: 50: 00 серия
    Качество видео: WEB-DLRip
    Видео: XviD, 720x400 (16: 9), 25.000 fps, 1 866 Kbps (0.259 bit/pixel)
    Аудио: AC-3, 48.0 KHz, 2 ch, 192 Kbps, CBR
    Код:

    Формат : AVI
    Формат/Информация : Audio Video Interleave
    Размер файла : 699 Мбайт
    Продолжительность : 47 м.
    Общий поток : 2068 Кбит/сек
    Программа кодирования : VirtualDubMod 1.5.10.2 (build 2540/release)
    Библиотека кодирования : VirtualDubMod build 2540/release
    Видео
    Идентификатор : 0
    Формат : MPEG-4 Visual
    Профиль формата : Advanced Simple@L5
    Параметр BVOP формата : 1
    Параметр QPel формата : Нет
    Параметр GMC формата : Без точки перехода
    Параметр матрицы формата : Выборочная
    Идентификатор кодека : XVID
    Идентификатор кодека/Подсказка : XviD
    Продолжительность : 47 м.
    Битрейт : 1866 Кбит/сек
    Ширина : 720 пикселей
    Высота : 400 пикселей
    Соотношение сторон : 16:9
    Частота кадров : 25, 000 кадров/сек
    Цветовое пространство : YUV
    Субдискретизация насыщенности : 4:2:0
    Битовая глубина : 8 бит
    Тип развёртки : Прогрессивная
    Метод сжатия : С потерями
    Бит/(Пиксели*Кадры) : 0.259
    Размер потока : 631 Мбайт (90%)
    Библиотека кодирования : XviD 1.2.1 (UTC 2008-12-04)
    Аудио
    Идентификатор : 1
    Формат : AC-3
    Формат/Информация : Audio Coding 3
    Расширение режима : CM (complete main)
    Параметр Endianness формата : Big
    Идентификатор кодека : 2000
    Продолжительность : 47 м.
    Вид битрейта : Постоянный
    Битрейт : 192 Кбит/сек
    Каналы : 2 канала
    Расположение каналов : Front: L R
    Частота : 48, 0 КГц
    Битовая глубина : 16 бит
    Метод сжатия : С потерями
    Размер потока : 64, 9 Мбайт (9%)
    Выравнивание : Разделение по промежуткам
    Продолжительность промежутка : 40 мс. (1, 00 видеокадр)
    Время предзагрузки промежутка : 500 мс.


    Скриншоты для ознакомления




    Онлайн видео Метод (2015) WEB



    Метод (2015) WEB-DLRip (серии 1-4 из 16) (обновляемая)
    загрузка...
    Рейтинг →
     (голосов: 1, оценка 5/5, голосовать можно 1 раз )

    Другие торренты по теме:

  • Метод Фрейда (2012) WEB-DLRip [H.264 / 720p-LQ] (серии 1-12 из 12) скачать через торрент бесплатно
  • Метод Фрейда (2012) WEB-DLRip [H.264 / 1080p-LQ] (серии 1-12 из 12) скачать через торрент бесплатно
  • Метод (2015) WEB-DLRip [H.264] (1-2 серия из 16) (обновляемая) скачать через торрент бесплатно
  • Метод Фрейда (2015) WEB-DLRip (сезон 2, серии 1-8 из 12) (обновляемая)
  • Метод Фрейда (2015) WEB-DLRip [H.264] (сезон 2, серии 1-4 из 12) (обновляемая)


    • Комментарии (0):

      Информация

      Информация

        Посетители, находящиеся в группе Гости, не могут оставлять комментарии в данной новости.

        ↓ Меню




        ↓ Опрос

        Вы добавили сайт в закладки?
        Да
        Нет


        Top 10 за месяц (Фильмы)